<?xml version="1.0" encoding="UTF-8"?>
<svg xmlns="http://www.w3.org/2000/svg" xmlns:xlink="http://www.w3.org/1999/xlink" version="1.2" >
<font id="Calcutta Regular">
<font-face  font-family="Calcutta" units-per-em="1024" ascent="819" descent="-205" font-style="normal" font-weight="400" font-stretch="normal" cap-height="679" x-height="505" underline-position="-327" underline-thickness="51" />
<missing-glyph  horiz-adv-x="374" d="M34 0 L306 0 L306 682 L34 682 L34 0 Z M68 34 L68 648 L272 648 L272 34 L68 34 Z " />
<glyph glyph-name="NULL" d="" />
<glyph glyph-name="CR" unicode="&#xd;" horiz-adv-x="256" d="" />
<glyph glyph-name="space" unicode="&#x20;" horiz-adv-x="256" d="" />
<glyph glyph-name="glyph3" d="" />
<glyph glyph-name="uni000D" d="" />
<glyph glyph-name="exclam" unicode="&#x21;" horiz-adv-x="264" d="M92 215 L173 215 L173 711 L92 711 L92 215 Z M69 54 C69 36 74.833 21.167 86.5 9.5 C98.167 -2.16699 113 -8 131 -8 C149 -8 164 -2.16699 176 9.5 C188 21.167 194 36 194 54 C194 70.667 187.833 85.167 175.5 97.5 C163.167 109.833 148.167 116 130.5 116 C112.833 116 98.166 110 86.499 98 C74.832 86 69 71.333 69 54 L69 54 Z " />
<glyph glyph-name="quotedbl" unicode="&#x22;" horiz-adv-x="311" d="M46 469 L122 469 L122 718 L46 718 L46 469 Z M191 469 L265 469 L265 718 L191 718 L191 469 Z " />
<glyph glyph-name="numbersign" unicode="&#x23;" horiz-adv-x="748" d="M448 246 L260 246 L306 464 L494 464 L448 246 Z M693 464 L693 530 L584 530 L622 711 L547 711 L510 530 L320 530 L358 711 L282 711 L245 530 L113 530 L113 464 L230 464 L184 246 L56 246 L56 179 L171 179 L133 0 L208 0 L246 179 L435 179 L397 0 L474 0 L512 179 L639 179 L639 246 L525 246 L571 464 L693 464 Z " />
<glyph glyph-name="dollar" unicode="&#x24;" horiz-adv-x="532" d="M440 685 C409.333 699.667 373.666 709.334 332.999 714.001 L332.999 826.001 L259.999 826.001 L259.999 716.001 C199.999 711.334 150.999 692.334 112.999 659.001 C74.999 625.668 55.999 580.668 55.999 524.001 C55.999 502.668 59.332 482.668 65.999 464.001 C72.666 445.334 80.833 429.667 90.5 417 C100.167 404.333 113 392.166 129 380.499 C145 368.832 159.833 359.499 173.5 352.499 C187.167 345.499 204 337.666 224 328.999 C228 326.999 236.333 323.332 249 317.999 C261.667 312.666 270.167 308.999 274.5 306.999 C278.833 304.999 286.333 301.499 297 296.499 C307.667 291.499 315.167 287.666 319.5 284.999 C323.833 282.332 330.166 278.332 338.499 272.999 C346.832 267.666 352.832 262.999 356.499 258.999 C360.166 254.999 364.666 249.999 369.999 243.999 C375.332 237.999 379.165 232.332 381.498 226.999 C383.831 221.666 385.831 215.499 387.498 208.499 C389.165 201.499 389.998 193.999 389.998 185.999 C389.998 149.332 377.331 121.165 351.998 101.498 C326.665 81.8311 291.665 71.998 246.998 71.998 C212.331 71.998 178.164 77.165 144.497 87.498 C110.83 97.8311 82.3301 111.998 58.9971 129.998 L58.9971 37.998 C98.3301 14.665 147.33 0.332031 205.997 -5.00098 L205.997 -115.001 L277.997 -115.001 L277.997 -6.00098 C337.997 -1.33398 386.497 17.833 423.497 51.5 C460.497 85.167 478.997 130.667 478.997 188 C478.997 207.333 476.83 225 472.497 241 C468.164 257 461.497 271.333 452.497 284 C443.497 296.667 434.164 307.834 424.497 317.501 C414.83 327.168 402.497 336.501 387.497 345.501 C372.497 354.501 359.164 362.001 347.497 368.001 C335.83 374.001 321.33 380.668 303.997 388.001 C300.664 389.334 295.997 391.334 289.997 394.001 C269.997 402.668 255.164 409.335 245.497 414.002 C235.83 418.669 223.33 425.502 207.997 434.502 C192.664 443.502 181.497 452.002 174.497 460.002 C167.497 468.002 160.997 478.002 154.997 490.002 C148.997 502.002 145.997 514.669 145.997 528.002 C145.997 560.669 158.664 587.002 183.997 607.002 C209.33 627.002 243.663 637.002 286.996 637.002 C304.996 637.002 323.329 635.169 341.996 631.502 C360.663 627.835 378.663 623.002 395.996 617.002 C413.329 611.002 427.996 603.669 439.996 595.002 L440 685 Z " />
<glyph glyph-name="percent" unicode="&#x25;" horiz-adv-x="893" d="M217 -1 L297 -1 L675 701 L594 701 L217 -1 Z M509 160 C509 114 525 74.667 557 42 C589 9.33301 628.333 -7 675 -7 C720.333 -7 759.5 9.33301 792.5 42 C825.5 74.667 842 113.834 842 159.501 C842 205.168 825.5 244.501 792.5 277.501 C759.5 310.501 720.333 327.001 675 327.001 C628.333 327.001 589 310.668 557 278.001 C525 245.334 509 206 509 160 L509 160 Z M52 543.001 C52 512.334 59.333 484.167 74 458.5 C88.667 432.833 108.834 412.666 134.501 397.999 C160.168 383.332 188.001 375.999 218.001 375.999 C264.001 375.999 303.501 392.332 336.501 424.999 C369.501 457.666 386.001 496.999 386.001 542.999 C386.001 572.332 378.501 599.832 363.501 625.499 C348.501 651.166 328.001 671.666 302.001 686.999 C276.001 702.332 248.001 709.999 218.001 709.999 C172.668 709.999 133.668 693.499 101.001 660.499 C68.334 627.499 52 588.334 52 543.001 L52 543.001 Z M125.001 542.999 C125.001 568.332 134.168 590.332 152.501 608.999 C170.834 627.666 192.667 636.999 218 636.999 C244.667 636.999 267.167 627.832 285.5 609.499 C303.833 591.166 313 568.999 313 542.999 C313 516.332 303.833 493.832 285.5 475.499 C267.167 457.166 244.667 447.999 218 447.999 C192.667 447.999 170.834 457.166 152.501 475.499 C134.168 493.832 125.001 516.332 125.001 542.999 L125.001 542.999 Z M580.001 159.999 C580.001 185.999 589.334 208.166 608.001 226.499 C626.668 244.832 649.001 253.999 675.001 253.999 C701.001 253.999 723.334 244.832 742.001 226.499 C760.668 208.166 770.001 185.999 770.001 159.999 C770.001 133.999 760.668 111.666 742.001 92.999 C723.334 74.332 701.001 64.999 675.001 64.999 C649.001 64.999 626.668 74.332 608.001 92.999 C589.334 111.666 580.001 133.999 580.001 159.999 L580.001 159.999 Z " />
<glyph glyph-name="ampersand" unicode="&#x26;" horiz-adv-x="740" d="M333 69 C281 69 238.5 79.667 205.5 101 C172.5 122.333 156 150.666 156 185.999 C156 200.666 158.833 214.166 164.5 226.499 C170.167 238.832 178.834 250.165 190.501 260.498 C202.168 270.831 215.835 280.331 231.502 288.998 C247.169 297.665 266.002 306.332 288.002 314.999 C294.002 309.666 304.502 299.999 319.502 285.999 C334.502 271.999 350.335 257.332 367.002 241.999 C383.669 226.666 404.336 207.499 429.003 184.499 C453.67 161.499 476.003 140.666 496.003 121.999 C453.336 86.666 399 69 333 69 L333 69 Z M336.003 651.999 C360.67 651.999 381.837 646.832 399.504 636.499 C417.171 626.166 430.004 612.999 438.004 596.999 C446.004 580.999 450.004 563.332 450.004 543.999 C450.004 524.666 445.171 506.666 435.504 489.999 C425.837 473.332 411.17 457.665 391.503 442.998 C371.836 428.331 346.336 413.664 315.003 398.997 C292.336 421.664 274.503 441.664 261.503 458.997 C248.503 476.33 239.336 492.163 234.003 506.496 C228.67 520.829 226.003 535.662 226.003 550.995 C226.003 582.328 236.336 606.995 257.003 624.995 C277.67 642.995 304.003 651.999 336.003 651.999 L336.003 651.999 Z M740.003 -0.00488281 L606.003 124.995 C635.336 169.662 652.003 221.995 656.003 281.995 L576.003 281.995 C573.336 246.662 563.336 212.329 546.003 178.996 L368.003 345.996 C428.003 373.996 471.003 403.996 497.003 435.996 C523.003 467.996 536.003 504.329 536.003 544.996 C536.003 596.996 517.67 640.496 481.003 675.496 C444.336 710.496 396.169 727.996 336.502 727.996 C276.835 727.996 229.002 711.829 193.002 679.496 C157.002 647.163 139.002 604.663 139.002 551.996 C139.002 521.329 146.669 491.996 162.002 463.996 C177.335 435.996 201.668 403.996 235.001 367.996 C179.668 346.663 138.168 321.33 110.501 291.997 C82.834 262.664 69.001 226.997 69.001 184.997 C69.001 128.33 93.334 81.9971 142.001 45.9971 C190.668 9.99707 255.001 -8.00293 335.001 -8.00293 C425.001 -8.00293 498.334 16.9971 555.001 66.9971 L626.001 -0.00292969 L740.003 -0.00488281 Z " />
<glyph glyph-name="quotesingle" unicode="&#x27;" horiz-adv-x="166" d="M46 469 L122 469 L122 718 L46 718 L46 469 Z " />
<glyph glyph-name="parenleft" unicode="&#x28;" horiz-adv-x="326" d="M338 -207 C280.667 -133.667 237.334 -55.834 208.001 26.499 C178.668 108.832 164.001 190.332 164.001 270.999 C164.001 439.666 219.001 597.999 329.001 745.999 L237.001 745.999 C187.001 680.666 147.668 607.333 119.001 526 C90.334 444.667 76.001 361 76.001 275 C76.001 188.333 90.334 104 119.001 22 C147.668 -60 189.668 -136.333 245.001 -207 L338 -207 Z " />
<glyph glyph-name="parenright" unicode="&#x29;" horiz-adv-x="326" d="M91 746 L-2 746 C108.667 598.667 164 440.334 164 271.001 C164 190.334 149.167 108.834 119.5 26.501 C89.833 -55.832 46.666 -133.665 -10.001 -206.998 L81.999 -206.998 C137.999 -136.331 180.332 -59.8311 208.999 22.502 C237.666 104.835 251.999 189.002 251.999 275.002 C251.999 360.335 237.666 443.835 208.999 525.502 C180.332 607.169 141 680.667 91 746 L91 746 Z " />
<glyph glyph-name="asterisk" unicode="&#x2a;" horiz-adv-x="429" d="M264 515 C278.667 515 291.334 517 302.001 521 L399.001 553 L378.001 617 L280.001 586 C262.668 580.667 249.001 573 239.001 563 C245.001 577 248.001 592.667 248.001 610 L248.001 711 L180.001 711 L180.001 610 C180.001 591.333 183.334 575 190.001 561 C178.001 571.667 164.001 579.667 148.001 585 L50.001 617 L31.001 552 L127.001 520 C138.334 516 151.001 514 165.001 514 L173.001 514 C162.334 508 151.334 497.667 140.001 483 L80.001 400 L135.001 360 L195.001 442 C205.668 456.667 212.335 470.667 215.002 484 C219.002 470 225.669 456.333 235.002 443 L296.002 360 L349.002 401 L290.002 483 C280.669 497 269.336 507.667 256.003 515 L264 515 Z " />
<glyph glyph-name="plus" unicode="&#x2b;" horiz-adv-x="582" d="M524 397 L327 397 L327 596 L249 596 L249 397 L60 397 L60 320 L249 320 L249 122 L327 122 L327 320 L524 320 L524 397 Z " />
<glyph glyph-name="comma" unicode="&#x2c;" horiz-adv-x="236" d="M-8 -130 L64 -130 L201 106 L90 106 L-8 -130 Z " />
<glyph glyph-name="hyphen" unicode="&#x2d;" horiz-adv-x="366" d="M60 247 L307 247 L307 319 L60 319 L60 247 Z " />
<glyph glyph-name="period" unicode="&#x2e;" horiz-adv-x="174" d="M26 54 C26 36 31.833 21.167 43.5 9.5 C55.167 -2.16699 69.834 -8 87.501 -8 C105.168 -8 119.835 -2.16699 131.502 9.5 C143.169 21.167 149.002 35.834 149.002 53.501 C149.002 71.168 143.169 86.001 131.502 98.001 C119.835 110.001 105.335 116.001 88.002 116.001 C79.335 116.001 71.168 114.501 63.501 111.501 C55.834 108.501 49.167 104.168 43.5 98.501 C37.833 92.834 33.5 86.001 30.5 78.001 C27.5 70.001 26 62 26 54 L26 54 Z " />
<glyph glyph-name="slash" unicode="&#x2f;" horiz-adv-x="424" d="M-9 -107 L75 -107 L459 746 L375 746 L-9 -107 Z " />
<glyph glyph-name="zero" unicode="0" horiz-adv-x="573" d="M45 347 C45 239.667 66.833 153.667 110.5 89 C154.167 24.333 212 -8 284 -8 C362 -8 422.167 24.333 464.5 89 C506.833 153.667 528 239.667 528 347 C528 455.667 506 541.334 462 604.001 C418 666.668 358.667 698.001 284 698.001 C212.667 698.001 155 666.501 111 603.501 C67 540.501 45 455 45 347 L45 347 Z M131 347.001 C131 433.668 146 500.668 176 548.001 C206 595.334 242 619.001 284 619.001 C330 619.001 368 595.668 398 549.001 C428 502.334 443 435.001 443 347.001 C443 259.001 428.667 191.001 400 143.001 C371.333 95.001 332.666 71.001 283.999 71.001 C240.666 71.001 204.333 95.334 175 144.001 C145.667 192.668 131 260.334 131 347.001 L131 347.001 Z " />
<glyph glyph-name="one" unicode="1" horiz-adv-x="339" d="M19 501 L178 599 L178 0 L261 0 L261 690 L182 690 L19 590 L19 501 Z " />
<glyph glyph-name="two" unicode="2" horiz-adv-x="520" d="M156 73 C354 226.333 453 365.333 453 490 C453 556.667 432 607.834 390 643.501 C348 679.168 296 697.001 234 697.001 C204 697.001 173.5 691.834 142.5 681.501 C111.5 671.168 84.667 657.335 62 640.002 L62 556.002 C86.667 575.335 113.834 590.502 143.501 601.502 C173.168 612.502 201.001 618.002 227.001 618.002 C269.668 618.002 303.668 606.335 329.001 583.002 C354.334 559.669 367.001 526.002 367.001 482.002 C367.001 372.002 258.001 235.002 40.001 71.002 L40.001 0.00195312 L476.001 0.00195312 L476.001 73.002 L156 73 Z " />
<glyph glyph-name="three" unicode="3" horiz-adv-x="491" d="M61 577 C79.667 589 101.834 599.167 127.501 607.5 C153.168 615.833 177.668 620 201.001 620 C241.668 620 273.668 610.667 297.001 592 C320.334 573.333 332.001 545.333 332.001 508 C332.001 470 318.334 440 291.001 418 C263.668 396 230.335 385 191.002 385 L146.002 385 L146.002 312 L191.002 312 C225.002 312 254.002 307.5 278.002 298.5 C302.002 289.5 320.335 276.333 333.002 259 C345.669 241.667 352.002 220.667 352.002 196 C352.002 158.667 339.502 128.5 314.502 105.5 C289.502 82.5 254.669 71 210.002 71 C147.335 71 90.668 84.667 40.001 112 L40.001 29 C62.668 17.667 89.835 9 121.502 3 C153.169 -3 183.336 -6 212.003 -6 C248.003 -6 280.503 -0.833008 309.503 9.5 C338.503 19.833 362.17 33.833 380.503 51.5 C398.836 69.167 413.003 89.834 423.003 113.501 C433.003 137.168 438.003 162.668 438.003 190.001 C438.003 231.334 426.17 266.001 402.503 294.001 C378.836 322.001 347.003 340.334 307.003 349.001 C343.67 364.334 371.337 386.667 390.004 416 C408.671 445.333 418.004 478.666 418.004 515.999 C418.004 567.332 399.171 610.332 361.504 644.999 C323.837 679.666 271.004 696.999 203.004 696.999 C177.671 696.999 151.838 693.166 125.505 685.499 C99.1719 677.832 77.6719 668.665 61.0049 657.998 L61 577 Z " />
<glyph glyph-name="four" unicode="4" horiz-adv-x="568" d="M129 240 L359 641 L359 240 L129 240 Z M544 240 L442 240 L442 690 L307 690 L44 240 L44 168 L359 168 L359 0 L442 0 L442 168 L544 168 L544 240 Z " />
<glyph glyph-name="five" unicode="5" horiz-adv-x="536" d="M178 617 L442 617 L442 690 L96 690 L96 308 C152 332.667 205 345 255 345 C299 345 334.667 334 362 312 C389.333 290 403 258.667 403 218 C403 119.333 344 70 226 70 C207.333 70 188 71.5 168 74.5 C148 77.5 128.667 82 110 88 C91.333 94 75.333 101 62 109 L62 28 C110 4 169 -8 239 -8 C290.333 -8 335 1.16699 373 19.5 C411 37.833 439.833 63.833 459.5 97.5 C479.167 131.167 489 170.334 489 215.001 C489 278.334 468.5 328.501 427.5 365.501 C386.5 402.501 331 421.001 261 421.001 C241 421.001 213.333 417.334 178 410.001 L178 617 Z " />
<glyph glyph-name="six" unicode="6" horiz-adv-x="554" d="M300 65 C269.333 65 242.5 73 219.5 89 C196.5 105 177.667 130.333 163 165 C148.333 199.667 140 242.334 138 293.001 C158.667 315.668 183.334 334.001 212.001 348.001 C240.668 362.001 271.001 369.001 303.001 369.001 C341.001 369.001 371.834 356.001 395.501 330.001 C419.168 304.001 431.001 269.334 431.001 226.001 C431.001 178.001 419.168 139.168 395.501 109.501 C371.834 79.834 340 65 300 65 L300 65 Z M469.001 694.001 C435.668 704.668 403.001 710.001 371.001 710.001 C321.001 710.001 275.834 699.668 235.501 679.001 C195.168 658.334 162.001 629.834 136.001 593.501 C110.001 557.168 90.001 515.001 76.001 467.001 C62.001 419.001 55.001 367.334 55.001 312.001 C55.001 216.001 76.168 138.168 118.501 78.501 C160.834 18.834 221.334 -10.999 300.001 -10.999 C365.334 -10.999 417.834 10.668 457.501 54.001 C497.168 97.334 517.001 154.334 517.001 225.001 C517.001 291.001 498.834 344.001 462.501 384.001 C426.168 424.001 376.335 444.001 313.002 444.001 C292.335 444.001 271.502 441.001 250.502 435.001 C229.502 429.001 209.669 420.501 191.002 409.501 C172.335 398.501 155.668 385.668 141.001 371.001 C145.001 406.334 152.834 439.501 164.501 470.501 C176.168 501.501 191.335 529.168 210.002 553.501 C228.669 577.834 251.836 597.001 279.503 611.001 C307.17 625.001 338.003 632.001 372.003 632.001 C406.003 632.001 438.336 625.668 469.003 613.001 L469.001 694.001 Z " />
<glyph glyph-name="seven" unicode="7" horiz-adv-x="474" d="M12 690 L12 617 L375 617 L89 0 L177 0 L464 617 L464 690 L12 690 Z " />
<glyph glyph-name="eight" unicode="8" horiz-adv-x="564" d="M279 65 C234.333 65 199.666 75.833 174.999 97.5 C150.332 119.167 137.999 146 137.999 178 C137.999 214 149.832 244.167 173.499 268.5 C197.166 292.833 232.333 305.333 279 306 C327.667 306.667 364.334 295.334 389.001 272.001 C413.668 248.668 426.001 220.001 426.001 186.001 C426.001 152.668 413.334 124.168 388.001 100.501 C362.668 76.834 326.333 65 279 65 L279 65 Z M278.002 623.001 C320.669 623.001 353.336 611.668 376.003 589.001 C398.67 566.334 410.003 538.334 410.003 505.001 C410.003 465.668 398.17 435.501 374.503 414.501 C350.836 393.501 320.003 383.001 282.003 383.001 C243.336 383.001 211.503 393.001 186.503 413.001 C161.503 433.001 149.003 463.334 149.003 504.001 C149.003 536.668 160.67 564.668 184.003 588.001 C207.336 611.334 238.669 623.001 278.002 623.001 L278.002 623.001 Z M384.002 346.001 C419.335 360.001 446.502 380.334 465.502 407.001 C484.502 433.668 494.002 465.335 494.002 502.002 C494.002 534.002 488.002 562.835 476.002 588.502 C464.002 614.169 447.669 634.669 427.002 650.002 C406.335 665.335 383.335 677.002 358.002 685.002 C332.669 693.002 306.002 697.002 278.002 697.002 C241.335 697.002 207.168 690.002 175.501 676.002 C143.834 662.002 117.501 639.835 96.501 609.502 C75.501 579.169 65.001 543.669 65.001 503.002 C65.001 465.002 75.001 432.502 95.001 405.502 C115.001 378.502 142.668 358.002 178.001 344.002 C139.334 330.002 109.001 308.502 87.001 279.502 C65.001 250.502 54.001 215.335 54.001 174.002 C54.001 118.669 75.334 74.502 118.001 41.502 C160.668 8.50195 214.001 -7.99805 278.001 -7.99805 C344.668 -7.99805 400.335 9.00195 445.002 43.002 C489.669 77.002 512.002 122.335 512.002 179.002 C512.002 263.669 469.335 319.334 384.002 346.001 L384.002 346.001 Z " />
<glyph glyph-name="nine" unicode="9" horiz-adv-x="531" d="M405 388 C369 342.667 322.667 320 266 320 C222.667 320 188.334 333.167 163.001 359.5 C137.668 385.833 125.001 423.333 125.001 472 C125.001 502.667 130.334 529.167 141.001 551.5 C151.668 573.833 167.001 591 187.001 603 C207.001 615 230.001 621 256.001 621 C283.334 621 306.834 615 326.501 603 C346.168 591 361.668 574 373.001 552 C384.334 530 392.501 506 397.501 480 C402.501 454 405.001 425 405.001 393 L405 388 Z M68.001 11 C107.334 -1.66699 146.667 -8 186 -8 C286 -8 361.167 27.667 411.5 99 C461.833 170.333 487 268.333 487 393 C487 435.667 482.5 474.834 473.5 510.501 C464.5 546.168 450.833 578.335 432.5 607.002 C414.167 635.669 389.834 658.002 359.501 674.002 C329.168 690.002 294.001 698.002 254.001 698.002 C187.334 698.002 134.667 676.669 96 634.002 C57.333 591.335 38 537.335 38 472.002 C38 404.669 58.5 350.336 99.5 309.003 C140.5 267.67 189 247.003 245 247.003 C281.667 247.003 312.167 251.836 336.5 261.503 C360.833 271.17 382.333 287.003 401 309.003 C383 149.67 310.333 70.0029 183 70.0029 C143 70.0029 104.667 78.0029 68 94.0029 L68.001 11 Z " />
<glyph glyph-name="colon" unicode="&#x3a;" horiz-adv-x="247" d="M62 401 C62 383 67.833 368.333 79.5 357 C91.167 345.667 105.834 340 123.501 340 C141.168 340 155.835 345.667 167.502 357 C179.169 368.333 185.002 383 185.002 401 C185.002 417.667 179.169 432 167.502 444 C155.835 456 141.335 462 124.002 462 C106.669 462 92.002 456 80.002 444 C68.002 432 62 417.667 62 401 L62 401 Z M62.002 60 C62.002 42.667 67.835 28.167 79.502 16.5 C91.1689 4.83301 106.002 -1 124.002 -1 C135.335 -1 145.668 1.66699 155.001 7 C164.334 12.333 171.667 19.666 177 28.999 C182.333 38.332 185 48.665 185 59.998 C185 77.3311 179.167 92.1641 167.5 104.497 C155.833 116.83 141.166 122.997 123.499 122.997 C105.832 122.997 91.165 116.83 79.498 104.497 C67.8311 92.1641 62.002 77.333 62.002 60 L62.002 60 Z " />
<glyph glyph-name="semicolon" unicode="&#x3b;" horiz-adv-x="236" d="M74 400 C74 382 79.833 367.333 91.5 356 C103.167 344.667 117.667 339 135 339 C152.333 339 167 344.667 179 356 C191 367.333 197 382 197 400 C197 416.667 191 430.834 179 442.501 C167 454.168 152.333 460.001 135 460.001 C117.667 460.001 103.167 454.168 91.5 442.501 C79.833 430.834 74 416.667 74 400 L74 400 Z M-8 -130 L64 -130 L201 106 L90 106 L-8 -130 Z " />
<glyph glyph-name="less" unicode="&#x3c;" horiz-adv-x="555" d="M60 319 L504 121 L504 207 L432 236 C384.667 256 331.334 278.833 272.001 304.5 C212.668 330.167 171.001 348.667 147.001 360 C199.001 385.333 318.001 436.333 504.001 513 L504.001 598 L60.001 400 L60 319 Z " />
<glyph glyph-name="equal" unicode="&#x3d;" horiz-adv-x="582" d="M60 430 L524 430 L524 501 L60 501 L60 430 Z M60 216 L524 216 L524 289 L60 289 L60 216 Z " />
<glyph glyph-name="greater" unicode="&#x3e;" horiz-adv-x="555" d="M495 400 L52 598 L52 513 L81 501 C100.333 493 124.833 482.667 154.5 470 C184.167 457.333 215.167 444.166 247.5 430.499 C279.833 416.832 310.833 403.499 340.5 390.499 C370.167 377.499 392.334 367.332 407.001 359.999 C354.334 333.332 236.001 282.332 52.001 206.999 L52.001 120.999 L495.001 318.999 L495 400 Z " />
<glyph glyph-name="question" unicode="&#x3f;" horiz-adv-x="475" d="M47 591 C103 627 158 645 212 645 C258 645 292.5 633.667 315.5 611 C338.5 588.333 350 559 350 523 C350 479 332.333 445.833 297 423.5 C261.667 401.167 211.667 390 147 390 L148 215 L229 215 L230 331 C255.333 333 279.666 338.333 302.999 347 C326.332 355.667 348.332 367.5 368.999 382.5 C389.666 397.5 406.166 417.5 418.499 442.5 C430.832 467.5 436.999 495.333 436.999 526 C436.999 587.333 416.999 634.833 376.999 668.5 C336.999 702.167 283.332 719 215.999 719 C193.999 719 172.166 717 150.499 713 C128.832 709 109.332 703.833 91.999 697.5 C74.666 691.167 59.666 684 46.999 676 L47 591 Z M125.999 54 C125.999 36 131.666 21.167 142.999 9.5 C154.332 -2.16699 168.665 -8 185.998 -8 C197.998 -8 208.998 -5.5 218.998 -0.5 C228.998 4.5 236.831 11.833 242.498 21.5 C248.165 31.167 250.998 42 250.998 54 C250.998 64.667 248.165 74.834 242.498 84.501 C236.831 94.168 228.998 101.835 218.998 107.502 C208.998 113.169 197.998 116.002 185.998 116.002 C169.331 116.002 155.164 109.835 143.497 97.502 C131.83 85.1689 125.999 70.667 125.999 54 L125.999 54 Z " />
<glyph glyph-name="at" unicode="&#x40;" horiz-adv-x="953" d="M452 88 C422 88 397.5 99 378.5 121 C359.5 143 350 172.333 350 209 C350 253.667 361.833 291.334 385.5 322.001 C409.167 352.668 439.667 368.001 477 368.001 C511 368.001 537 358.668 555 340.001 C573 321.334 584.667 294.001 590 258.001 C588.667 246.001 587.334 226.668 586.001 200.001 C574.668 164.668 556.501 137.168 531.501 117.501 C506.501 97.834 480 88 452 88 L452 88 Z M626.001 -59.999 C572.001 -89.999 509.668 -104.999 439.001 -104.999 C400.334 -104.999 363.501 -98.499 328.501 -85.499 C293.501 -72.499 262.168 -53.499 234.501 -28.499 C206.834 -3.49902 184.667 29.334 168 70.001 C151.333 110.668 143 156.335 143 207.002 C143 276.335 160.333 339.502 195 396.502 C229.667 453.502 275.334 497.669 332.001 529.002 C388.668 560.335 450.001 576.002 516.001 576.002 C575.334 576.002 628.501 564.835 675.501 542.502 C722.501 520.169 760.168 485.669 788.501 439.002 C816.834 392.335 831.001 337.002 831.001 273.002 C831.001 219.669 820.501 175.836 799.501 141.503 C778.501 107.17 752.668 90.0029 722.001 90.0029 C696.668 90.0029 678.835 98.8359 668.502 116.503 C658.169 134.17 653.002 160.67 653.002 196.003 C653.002 219.336 654.335 249.669 657.002 287.002 L673.002 433.002 L604.002 433.002 C603.335 426.335 602.835 419.168 602.502 411.501 C602.169 403.834 601.669 396.167 601.002 388.5 C600.335 380.833 599.668 374.666 599.001 369.999 C571.668 415.332 530.335 437.999 475.002 437.999 C417.002 437.999 368.502 416.332 329.502 372.999 C290.502 329.666 271.002 276.333 271.002 213 C271.002 157.667 286.169 111.5 316.502 74.5 C346.835 37.5 387.668 19 439.001 19 C505.001 19 557.001 50.333 595.001 113 C612.334 53 653.334 23 718.001 23 C740.668 23 762.835 28.333 784.502 39 C806.169 49.667 826.169 65 844.502 85 C862.835 105 877.502 131.833 888.502 165.5 C899.502 199.167 905.002 236.667 905.002 278 C905.002 333.333 894.669 384.333 874.002 431 C853.335 477.667 825.502 516.667 790.502 548 C755.502 579.333 714.502 603.666 667.502 620.999 C620.502 638.332 570.669 646.999 518.002 646.999 C435.335 646.999 359.335 628.332 290.002 590.999 C220.669 553.666 165.502 501.166 124.502 433.499 C83.502 365.832 63.002 290.332 63.002 206.999 C63.002 152.332 71.6689 101.665 89.002 54.998 C106.335 8.33105 130.668 -32.1689 162.001 -66.502 C193.334 -100.835 232.667 -127.835 280 -147.502 C327.333 -167.169 379.666 -177.002 436.999 -177.002 C514.332 -177.002 575.999 -165.002 621.999 -141.002 L626.001 -59.999 Z " />
<glyph glyph-name="A" unicode="A" horiz-adv-x="682" d="M216 260 L230 300 C296.667 498.667 334.667 613 344 643 L350 623 C353.333 610.333 364.166 575.5 382.499 518.5 C400.832 461.5 424.665 389 453.998 301 L468.998 260 L216 260 Z M554.998 0 L646.998 0 L402.998 711 L283.998 711 L36.998 0 L128.998 0 L191.998 186 L491.998 186 L554.998 0 Z " />
<glyph glyph-name="B" unicode="B" horiz-adv-x="601" d="M167 73 L167 322 L312 322 C345.333 322 373.833 317 397.5 307 C421.167 297 439 282.5 451 263.5 C463 244.5 469 221.667 469 195 C469 155 456.667 124.667 432 104 C407.333 83.333 372.666 73 327.999 73 L167 73 Z M166.999 639 L295.999 639 C345.999 639 383.832 628 409.499 606 C435.166 584 447.999 556.667 447.999 524 C447.999 486 434.332 455.167 406.999 431.5 C379.666 407.833 337.333 396 280 396 L167 396 L166.999 639 Z M81 711 L81 0 L341 0 C409.667 0 462.834 17.5 500.501 52.5 C538.168 87.5 557.001 133.333 557.001 190 C557.001 239.333 543.168 278.666 515.501 307.999 C487.834 337.332 454.001 355.332 414.001 361.999 C450.001 369.332 479.501 387.832 502.501 417.499 C525.501 447.166 537.001 482.666 537.001 523.999 C537.001 581.332 515.001 626.832 471.001 660.499 C427.001 694.166 368.668 710.999 296.001 710.999 L81 711 Z " />
<glyph glyph-name="C" unicode="C" horiz-adv-x="634" d="M588 683 C543.333 707.667 483.333 720 408 720 C358 720 311 711.333 267 694 C223 676.667 185.167 652.334 153.5 621.001 C121.833 589.668 96.666 551.335 77.999 506.002 C59.332 460.669 49.999 411.336 49.999 358.003 C49.999 245.336 83.499 156.169 150.499 90.502 C217.499 24.835 304.332 -7.99805 410.999 -7.99805 C486.999 -7.99805 546.666 6.66895 589.999 36.002 L589.999 126.002 C542.666 90.002 485.333 72.002 418 72.002 C334.667 72.002 267.5 97.835 216.5 149.502 C165.5 201.169 140 270.669 140 358.002 C140 442.002 165.667 510.169 217 562.502 C268.333 614.835 332 641.002 408 641.002 C436 641.002 460.5 639.169 481.5 635.502 C502.5 631.835 520.5 627.002 535.5 621.002 C550.5 615.002 568 606.335 588 595.002 L588 683 Z " />
<glyph glyph-name="D" unicode="D" horiz-adv-x="696" d="M168 75 L168 634 L291 634 C371.667 634 437 607.667 487 555 C537 502.333 562 437.333 562 360 C562 322 556.833 286.167 546.5 252.5 C536.167 218.833 520.5 188.666 499.5 161.999 C478.5 135.332 450.5 114.165 415.5 98.498 C380.5 82.8311 340.667 74.998 296 74.998 L168 75 Z M81 710.998 L81 -0.00195312 L297 -0.00195312 C353.667 -0.00195312 404.834 9.66504 450.501 28.998 C496.168 48.3311 533.335 74.6641 562.002 107.997 C590.669 141.33 612.669 179.497 628.002 222.497 C643.335 265.497 651.002 311.33 651.002 359.997 C651.002 463.997 617.502 548.497 550.502 613.497 C483.502 678.497 397.669 710.997 293.002 710.997 L81 710.998 Z " />
<glyph glyph-name="E" unicode="E" horiz-adv-x="528" d="M167 75 L167 317 L437 317 L437 392 L167 392 L167 636 L473 636 L473 711 L81 711 L81 0 L478 0 L478 75 L167 75 Z " />
<glyph glyph-name="F" unicode="F" horiz-adv-x="515" d="M472 636 L472 711 L81 711 L81 0 L167 0 L167 309 L435 309 L435 384 L167 384 L167 636 L472 636 Z " />
<glyph glyph-name="G" unicode="G" horiz-adv-x="706" d="M636 399 L394 399 L394 323 L551 323 L551 102 C510.333 83.333 466 74 418 74 C331.333 74 263.333 99 214 149 C164.667 199 140 268 140 356 C140 442 164.833 511 214.5 563 C264.167 615 329 641 409 641 C485 641 552 621.667 610 583 L610 675 C555.333 707 486 723 402 723 C352 723 305.333 714 262 696 C218.667 678 181.5 653.167 150.5 621.5 C119.5 589.833 95 551.166 77 505.499 C59 459.832 50 409.999 50 355.999 C50 243.332 83.5 154.499 150.5 89.499 C217.5 24.499 305.667 -8.00098 415 -8.00098 C458.333 -8.00098 499.5 -2.33398 538.5 8.99902 C577.5 20.332 610 35.999 636 55.999 L634 58.999 L636 58.999 L636 399 Z " />
<glyph glyph-name="H" unicode="H" horiz-adv-x="677" d="M512 711 L512 399 L167 399 L167 711 L81 711 L81 0 L167 0 L167 321 L512 321 L512 0 L597 0 L597 711 L512 711 Z " />
<glyph glyph-name="I" unicode="I" horiz-adv-x="259" d="M88 0 L173 0 L173 711 L88 711 L88 0 Z " />
<glyph glyph-name="J" unicode="J" horiz-adv-x="376" d="M32 24 C61.333 8 94.666 0 131.999 0 C181.999 0 222.166 14.167 252.499 42.5 C282.832 70.833 297.999 117.333 297.999 182 L297.999 711 L211.999 711 L211.999 175 C211.999 110.333 181.666 78 120.999 78 C90.332 78 60.665 87 31.998 105 L32 24 Z " />
<glyph glyph-name="K" unicode="K" horiz-adv-x="603" d="M81 0 L167 0 L167 711 L81 711 L81 0 Z M289 351 L560 711 L454 711 L183 351 L465 0 L575 0 L289 351 Z " />
<glyph glyph-name="L" unicode="L" horiz-adv-x="502" d="M167 77 L167 711 L81 711 L81 0 L470 0 L470 77 L167 77 Z " />
<glyph glyph-name="M" unicode="M" horiz-adv-x="903" d="M74 0 L160 0 L179 280 C193 468.667 200 571.667 200 589 L307 280 L401 15 L482 15 L581 280 C620.333 386 658.666 491.333 695.999 596 L720.999 280 L745.999 0 L830.999 0 L767.999 711 L659.999 711 L561.999 451 C523.332 345.667 483.332 235.667 441.999 121 L327.999 451 L233.999 711 L125.999 711 L74 0 Z " />
<glyph glyph-name="N" unicode="N" horiz-adv-x="709" d="M81 0 L167 0 L167 300 C167 432.667 165.333 535.667 162 609 L180 576 C192 554 213.167 517 243.5 465 C273.833 413 307 357.333 343 298 L521 0 L628 0 L628 711 L543 711 L543 410 C543 273.333 544.333 171 547 103 L529 134 C517.667 154.667 497 190.667 467 242 C437 293.333 403.667 349.666 367 410.999 L188 710.999 L81 710.999 L81 0 Z " />
<glyph glyph-name="O" unicode="O" horiz-adv-x="737" d="M50 358 C50 247.333 79.333 158.666 138 91.999 C196.667 25.332 274 -8.00098 370 -8.00098 C467.333 -8.00098 544.833 25.166 602.5 91.499 C660.167 157.832 689 246.665 689 357.998 C689 470.665 660.667 559.832 604 625.499 C547.333 691.166 469 723.999 369 723.999 C271.667 723.999 194.167 690.999 136.5 624.999 C78.833 558.999 50 470 50 358 L50 358 Z M140 357.999 C140 417.332 149 468.499 167 511.499 C185 554.499 211.333 587.499 246 610.499 C280.667 633.499 321.667 644.999 369 644.999 C441.667 644.999 498 619.499 538 568.499 C578 517.499 598 447.332 598 357.999 C598 313.999 593 274.332 583 238.999 C573 203.666 558.333 173.833 539 149.5 C519.667 125.167 495.667 106.334 467 93.001 C438.333 79.668 406 73.001 370 73.001 C300 73.001 244.167 98.668 202.5 150.001 C160.833 201.334 140 270.666 140 357.999 L140 357.999 Z " />
<glyph glyph-name="P" unicode="P" horiz-adv-x="574" d="M167 335 L167 639 L269 639 C325.667 639 369.5 624.833 400.5 596.5 C431.5 568.167 447 530 447 482 C447 461.333 443.333 442 436 424 C428.667 406 417.834 390.333 403.501 377 C389.168 363.667 371.168 353.334 349.501 346.001 C327.834 338.668 303.334 335.001 276.001 335.001 L167 335 Z M81.001 711.001 L81.001 0.000976562 L167.001 0.000976562 L167.001 262.001 L276.001 262.001 C354.001 262.001 416.501 282.834 463.501 324.501 C510.501 366.168 534.001 418.668 534.001 482.001 C534.001 550.001 510.168 605.168 462.501 647.501 C414.834 689.834 350.001 711.001 268.001 711.001 L81.001 711.001 Z " />
<glyph glyph-name="Q" unicode="Q" horiz-adv-x="747" d="M140 358 C140 417.333 149 468.5 167 511.5 C185 554.5 211.333 587.5 246 610.5 C280.667 633.5 321.667 645 369 645 C441.667 645 498 619.5 538 568.5 C578 517.5 598 447.333 598 358 C598 314 593 274.333 583 239 C573 203.667 558.333 173.834 539 149.501 C519.667 125.168 495.667 106.335 467 93.002 C438.333 79.6689 406 73.002 370 73.002 C300 73.002 244.167 98.6689 202.5 150.002 C160.833 201.335 140 270.667 140 358 L140 358 Z M720 -110.999 L510 20.001 C547.333 37.334 579.5 62.001 606.5 94.001 C633.5 126.001 654 164.501 668 209.501 C682 254.501 689 304.001 689 358.001 C689 470.668 660.667 559.835 604 625.502 C547.333 691.169 469 724.002 369 724.002 C271.667 724.002 194.167 691.002 136.5 625.002 C78.833 559.002 50 470.002 50 358.002 C50 247.335 79.333 158.668 138 92.001 C196.667 25.334 274 -7.99902 370 -7.99902 C386 -7.99902 401.333 -6.99902 416 -4.99902 L627 -148.999 L720 -110.999 Z " />
<glyph glyph-name="R" unicode="R" horiz-adv-x="577" d="M167 637 L265 637 C371 637 424 589.333 424 494 C424 453.333 411.167 419.666 385.5 392.999 C359.833 366.332 322.666 352.999 273.999 352.999 L166.999 352.999 L167 637 Z M553.999 -0.000976562 L366.999 294.999 C388.999 301.666 408.999 311.166 426.999 323.499 C444.999 335.832 459.999 350.499 471.999 367.499 C483.999 384.499 493.332 403.499 499.999 424.499 C506.666 445.499 510.333 467.999 511 491.999 C511 560.666 489.667 614.333 447 653 C404.333 691.667 342 711 260 711 L81 711 L81 0 L167 0 L167 280 L269 280 L277 280 L451 0 L553.999 -0.000976562 Z " />
<glyph glyph-name="S" unicode="S" horiz-adv-x="552" d="M453 685 C412.333 706.333 360.666 717 297.999 717 C231.999 717 177.499 700 134.499 666 C91.499 632 69.999 584.667 69.999 524 C69.999 507.333 71.999 491.5 75.999 476.5 C79.999 461.5 84.832 448.667 90.499 438 C96.166 427.333 104.499 416.5 115.499 405.5 C126.499 394.5 136.332 385.667 144.999 379 C153.666 372.333 165.666 364.833 180.999 356.5 C196.332 348.167 208.499 342 217.499 338 C226.499 334 239.332 328 255.999 320 C264.666 316.667 270.999 314 274.999 312 C318.332 292.667 350.499 274.167 371.499 256.5 C392.499 238.833 402.999 215.333 402.999 186 C402.999 149.333 390.332 121.166 364.999 101.499 C339.666 81.832 304.999 71.999 260.999 71.999 C226.332 71.999 192.165 77.166 158.498 87.499 C124.831 97.832 96.3311 111.999 72.998 129.999 L72.998 37.999 C124.331 7.99902 187.664 -7.00098 262.997 -7.00098 C330.33 -7.00098 385.33 9.99902 427.997 43.999 C470.664 77.999 491.997 125.999 491.997 187.999 C491.997 205.332 489.997 221.499 485.997 236.499 C481.997 251.499 477.164 264.499 471.497 275.499 C465.83 286.499 457.33 297.499 445.997 308.499 C434.664 319.499 424.664 328.332 415.997 334.999 C407.33 341.666 395.163 349.166 379.496 357.499 C363.829 365.832 351.662 371.999 342.995 375.999 C334.328 379.999 321.328 385.666 303.995 392.999 C287.995 400.332 276.995 405.332 270.995 407.999 C264.995 410.666 255.495 415.333 242.495 422 C229.495 428.667 220.162 434.167 214.495 438.5 C208.828 442.833 201.661 448.5 192.994 455.5 C184.327 462.5 178.16 469.333 174.493 476 C170.826 482.667 167.493 490.5 164.493 499.5 C161.493 508.5 159.993 518 159.993 528 C159.993 560.667 172.66 587 197.993 607 C223.326 627 257.326 637 299.993 637 C327.326 637 354.993 633.167 382.993 625.5 C410.993 617.833 434.326 607.666 452.993 594.999 L453 685 Z " />
<glyph glyph-name="T" unicode="T" horiz-adv-x="507" d="M488 711 L19 711 L19 636 L211 636 L211 0 L297 0 L297 636 L488 636 L488 711 Z " />
<glyph glyph-name="U" unicode="U" horiz-adv-x="679" d="M515 268 C515 137.333 456.333 72 339 72 C286.333 72 244.333 87.333 213 118 C181.667 148.667 166 197 166 263 L166 711 L80 711 L80 262 C80 174 102.833 107 148.5 61 C194.167 15 257.667 -8 339 -8 C421.667 -8 485.834 15.5 531.501 62.5 C577.168 109.5 600.001 178.667 600.001 270 L600.001 711 L515.001 711 L515 268 Z " />
<glyph glyph-name="V" unicode="V" horiz-adv-x="671" d="M633 711 L542 711 L447 430 C398.333 284 360.666 166.333 333.999 77 L321.999 117 C313.999 143 300.832 185.333 282.499 244 C264.166 302.667 243.999 364.667 221.999 430 L129.999 711 L37.999 711 L277.999 0 L385.999 0 L633 711 Z " />
<glyph glyph-name="W" unicode="W" horiz-adv-x="988" d="M455 700 L382 447 C354.667 353 321 234 281 90 L194 447 L128 711 L38 711 L224 0 L333 0 L399 225 C444.333 378.333 478 496.666 500 579.999 L607 224.999 L675 -0.000976562 L785 -0.000976562 L952 710.999 L865 710.999 L804 445.999 C784.667 361.999 759 242.332 727 86.999 L619 446.999 L541 699.999 L455 700 Z " />
<glyph glyph-name="X" unicode="X" horiz-adv-x="645" d="M270 358 L41 0 L142 0 C144.667 4.66699 160 29.5 188 74.5 C216 119.5 244.333 165.167 273 211.5 C301.667 257.833 317 282.666 319 285.999 L505 -0.000976562 L606 -0.000976562 L367 357.999 L582 710.999 L481 710.999 C480.333 708.999 453.5 663.999 400.5 575.999 C347.5 487.999 319.667 441.332 317 435.999 L154 710.999 L54 710.999 L270 358 Z " />
<glyph glyph-name="Y" unicode="Y" horiz-adv-x="625" d="M598 711 L499 711 L445 607 C362.333 448.333 317.666 360 310.999 342 L308.999 346 C308.332 348.667 305.332 355.667 299.999 367 C294.666 378.333 287.833 392.833 279.5 410.5 C271.167 428.167 258.334 454.167 241.001 488.5 C223.668 522.833 203.335 562.333 180.002 607 L127.002 711 L28.002 711 L269.002 264 L269.002 0 L354.002 0 L354.002 265 L598 711 Z " />
<glyph glyph-name="Z" unicode="Z" horiz-adv-x="599" d="M529 711 L60 711 L60 639 L431 639 L55 71 L55 0 L545 0 L545 73 L154 73 L529 642 L529 711 Z " />
<glyph glyph-name="bracketleft" unicode="&#x5b;" horiz-adv-x="326" d="M323 672 L323 746 L81 746 L81 -193 L323 -193 L323 -117 L164 -117 L164 672 L323 672 Z " />
<glyph glyph-name="backslash" unicode="&#x5c;" horiz-adv-x="423" d="M50 746 L-35 746 L350 -108 L435 -108 L50 746 Z " />
<glyph glyph-name="bracketright" unicode="&#x5d;" horiz-adv-x="326" d="M246 746 L3 746 L3 672 L164 672 L164 -117 L3 -117 L3 -193 L246 -193 L246 746 Z " />
<glyph glyph-name="asciicircum" unicode="&#x5e;" horiz-adv-x="486" d="M439 350 L294 626 L197 626 L47 350 L131 350 L245 570 L355 350 L439 350 Z " />
<glyph glyph-name="underscore" unicode="&#x5f;" horiz-adv-x="591" d="M30 -105 L562 -105 L562 -33 L30 -33 L30 -105 Z " />
<glyph glyph-name="grave" unicode="&#x60;" horiz-adv-x="443" d="M221 842 L122 842 L252 677 L324 677 L221 842 Z " />
<glyph glyph-name="a" unicode="a" horiz-adv-x="518" d="M365 247 L365 178 C365 156.667 360 137.334 350 120.001 C340 102.668 325.5 89.001 306.5 79.001 C287.5 69.001 265.333 64.001 240 64.001 C206 64.001 180.333 72.334 163 89.001 C145.667 105.668 137 127.335 137 154.002 C137 181.335 148.167 203.668 170.5 221.001 C192.833 238.334 226.666 247.001 271.999 247.001 L365 247 Z M88.999 423.001 C108.999 437.001 132.666 448.168 159.999 456.501 C187.332 464.834 213.999 469.001 239.999 469.001 C284.666 469.001 316.666 458.168 335.999 436.501 C355.332 414.834 364.999 383.001 364.999 341.001 L364.999 313.001 L267.999 313.001 C200.666 313.001 147.333 298.668 108 270.001 C68.667 241.334 49 201.334 49 150.001 C49 105.334 64.5 68.334 95.5 39.001 C126.5 9.66797 166.667 -4.99902 216 -4.99902 C256 -4.99902 288.167 1.66797 312.5 15.001 C336.833 28.334 354.666 44.334 365.999 63.001 L365.999 0.000976562 L447.999 0.000976562 L447.999 339.001 C447.999 406.334 431.832 457.167 399.499 491.5 C367.166 525.833 316.333 543 247 543 C179.667 543 127 531 89 507 L88.999 423.001 Z " />
<glyph glyph-name="b" unicode="b" horiz-adv-x="600" d="M320 68 C300 68 281.167 71.333 263.5 78 C245.833 84.667 229.333 95.5 214 110.5 C198.667 125.5 186.5 146.667 177.5 174 C168.5 201.333 164 233.666 164 270.999 C164 306.332 169 337.499 179 364.499 C189 391.499 201.833 411.999 217.5 425.999 C233.167 439.999 249.334 450.499 266.001 457.499 C282.668 464.499 299.001 467.999 315.001 467.999 C359.668 467.999 396.668 450.166 426.001 414.499 C455.334 378.832 470.001 327.999 470.001 261.999 C470.001 204.666 455.834 157.999 427.501 121.999 C399.168 85.999 363.333 68 320 68 L320 68 Z M164.002 745.999 L80.002 745.999 L80.002 -0.000976562 L164.002 -0.000976562 L164.002 78.999 C202.669 20.999 257.336 -8.00098 328.003 -8.00098 C375.336 -8.00098 416.669 4.83203 452.002 30.499 C487.335 56.166 513.502 89.166 530.502 129.499 C547.502 169.832 556.002 214.332 556.002 262.999 C556.002 346.332 534.502 413.832 491.502 465.499 C448.502 517.166 393.002 542.999 325.002 542.999 C256.335 542.999 202.668 513.332 164.001 453.999 L164.002 745.999 Z " />
<glyph glyph-name="c" unicode="c" horiz-adv-x="496" d="M132 265 C132 322.333 150.167 370.666 186.5 409.999 C222.833 449.332 271.333 468.999 332 468.999 C349.333 468.999 368.666 466.166 389.999 460.499 C411.332 454.832 429.665 446.665 444.998 435.998 L444.998 514.998 C410.998 534.331 369.998 543.998 321.998 543.998 C293.331 543.998 265.998 540.331 239.998 532.998 C213.998 525.665 190.998 515.665 170.998 502.998 C150.998 490.331 132.998 475.331 116.998 457.998 C100.998 440.665 87.8311 421.665 77.498 400.998 C67.165 380.331 59.165 358.498 53.498 335.498 C47.8311 312.498 44.998 289.331 44.998 265.998 C44.998 215.998 55.498 170.165 76.498 128.498 C97.498 86.8311 129.165 53.1641 171.498 27.4971 C213.831 1.83008 263.331 -11.0029 319.998 -11.0029 C341.331 -11.0029 363.831 -8.33594 387.498 -3.00293 C411.165 2.33008 430.332 9.66309 444.999 18.9961 L444.999 97.9961 C408.332 74.6631 370.665 62.9961 331.998 62.9961 C268.665 62.9961 219.665 82.3291 184.998 120.996 C150.331 159.663 132.667 207.667 132 265 L132 265 Z " />
<glyph glyph-name="d" unicode="d" horiz-adv-x="597" d="M280 68 C252 68 226.833 76 204.5 92 C182.167 108 164.5 130.833 151.5 160.5 C138.5 190.167 132 224 132 262 C132 295.333 136 325.333 144 352 C152 378.667 163.167 400.334 177.5 417.001 C191.833 433.668 208.166 446.335 226.499 455.002 C244.832 463.669 264.665 468.002 285.998 468.002 C302.665 468.002 319.165 464.502 335.498 457.502 C351.831 450.502 367.998 440.002 383.998 426.002 C399.998 412.002 412.998 391.502 422.998 364.502 C432.998 337.502 437.998 306.335 437.998 271.002 C437.998 233.669 433.498 201.336 424.498 174.003 C415.498 146.67 403.165 125.503 387.498 110.503 C371.831 95.5029 355.164 84.6699 337.497 78.0029 C319.83 71.3359 300.667 68 280 68 L280 68 Z M437.996 746.003 L437.996 453.003 C399.329 513.003 344.996 543.003 274.996 543.003 C207.663 543.003 152.496 517.17 109.496 465.503 C66.4961 413.836 44.9961 346.336 44.9961 263.003 C44.9961 214.336 53.4961 169.836 70.4961 129.503 C87.4961 89.1699 113.663 56.1699 148.996 30.5029 C184.329 4.83594 225.662 -7.99707 272.995 -7.99707 C344.328 -7.99707 399.328 21.0029 437.995 79.0029 L437.995 0.00292969 L520.995 0.00292969 L520.995 746.003 L437.996 746.003 Z " />
<glyph glyph-name="e" unicode="e" horiz-adv-x="550" d="M418 302 L131 302 C135.667 355.333 152 396.5 180 425.5 C208 454.5 242 469 282 469 C324 469 357.167 455.667 381.5 429 C405.833 402.333 418 366.666 418 321.999 L418 302 Z M468 104.999 C433.333 80.999 385 68.999 323 68.999 C269 68.999 225 82.999 191 110.999 C157 138.999 137 179.332 131 231.999 L495 231.999 C499 249.999 501 270.999 501 294.999 C501 373.666 481.167 434.333 441.5 477 C401.833 519.667 348.666 541 281.999 541 C212.666 541 155.833 516.333 111.5 467 C67.167 417.667 45 350.667 45 266 C45 184.667 69.667 119.167 119 69.5 C168.333 19.833 233.666 -5 314.999 -5 C330.999 -5 348.166 -3.66699 366.499 -1 C384.832 1.66699 402.999 5.5 420.999 10.5 C438.999 15.5 454.666 21.333 467.999 28 L468 104.999 Z " />
<glyph glyph-name="f" unicode="f" horiz-adv-x="346" d="M333 746 C315.667 750.667 298 753 280 753 C230.667 753 192.334 737.833 165.001 707.5 C137.668 677.167 124.001 636 124.001 584 L124.001 535 L32.001 535 L32.001 468 L124.001 468 L124.001 0 L207.001 0 L207.001 468 L324.001 468 L324.001 535 L207.001 535 L207.001 583 C207.001 615.667 214.168 639.667 228.501 655 C242.834 670.333 261.001 678 283.001 678 C299.668 678 316.335 675.333 333.002 670 L333 746 Z " />
<glyph glyph-name="g" unicode="g" horiz-adv-x="578" d="M277 88 C239.667 88 206.334 103.5 177.001 134.5 C147.668 165.5 133.001 211 133.001 271 C133.001 309.667 138.834 343.667 150.501 373 C162.168 402.333 179.335 425.5 202.002 442.5 C224.669 459.5 251.002 468 281.002 468 C298.335 468 315.168 464.167 331.501 456.5 C347.834 448.833 363.167 437.5 377.5 422.5 C391.833 407.5 403.333 386.5 412 359.5 C420.667 332.5 425 301.333 425 266 C425 235.333 420.5 208.166 411.5 184.499 C402.5 160.832 390.667 142.165 376 128.498 C361.333 114.831 345.5 104.664 328.5 97.9971 C311.5 91.3301 294.333 88 277 88 L277 88 Z M425 534.997 L425 445.997 C390.333 509.997 336.666 541.997 263.999 541.997 C198.666 541.997 145.999 516.33 105.999 464.997 C65.999 413.664 45.999 348.331 45.999 268.998 C45.999 188.998 67.666 126.331 110.999 80.998 C154.332 35.665 206.665 12.998 267.998 12.998 C337.331 12.998 389.664 43.3311 424.997 103.998 L424.997 43.998 C424.997 -14.002 410.33 -56.835 380.997 -84.502 C351.664 -112.169 311.331 -126.002 259.998 -126.002 C197.998 -126.002 144.998 -113.002 100.998 -87.002 L100.998 -170.002 C145.665 -192.002 200.998 -203.002 266.998 -203.002 C300.331 -203.002 331.331 -198.169 359.998 -188.502 C388.665 -178.835 414.332 -164.335 436.999 -145.002 C459.666 -125.669 477.333 -99.8359 490 -67.5029 C502.667 -35.1699 509 1.66309 509 42.9961 L509 534.996 L425 534.997 Z " />
<glyph glyph-name="h" unicode="h" horiz-adv-x="568" d="M160 746 L77 746 L77 0 L160 0 L160 293 C160 349 174.667 392.167 204 422.5 C233.333 452.833 267.666 468 306.999 468 C327.666 468 346.166 463.5 362.499 454.5 C378.832 445.5 391.665 431.667 400.998 413 C410.331 394.333 414.998 372 414.998 346 L414.998 0 L498.998 0 L498.998 366 C498.998 419.333 483.331 462 451.998 494 C420.665 526 379.332 542 327.999 542 C247.332 542 191.332 508.667 159.999 442 L160 746 Z " />
<glyph glyph-name="i" unicode="i" horiz-adv-x="245" d="M81 0 L165 0 L165 535 L81 535 L81 0 Z M69 702.5 C69 686.833 74 674 84 664 C94 654 106.833 649 122.5 649 C138.167 649 151.167 654 161.5 664 C171.833 674 177 686.833 177 702.5 C177 718.167 171.833 731.167 161.5 741.5 C151.167 751.833 138.167 757 122.5 757 C106.833 757 94 751.833 84 741.5 C74 731.167 69 718.167 69 702.5 L69 702.5 Z " />
<glyph glyph-name="j" unicode="j" horiz-adv-x="239" d="M-48 -190 C-18.667 -200.667 6.66602 -206 27.999 -206 C71.332 -206 104.999 -192.833 128.999 -166.5 C152.999 -140.167 164.999 -104 164.999 -58 L164.999 535 L81.999 535 L81.999 -56 C81.999 -107.333 62.666 -133 23.999 -133 C3.33203 -133 -20.668 -127.333 -48.001 -116 L-48 -190 Z M68.999 702.5 C68.999 686.833 73.999 674 83.999 664 C93.999 654 106.832 649 122.499 649 C138.166 649 151.166 654 161.499 664 C171.832 674 176.999 686.833 176.999 702.5 C176.999 718.167 171.832 731.167 161.499 741.5 C151.166 751.833 138.166 757 122.499 757 C106.832 757 93.999 751.833 83.999 741.5 C73.999 731.167 68.999 718.167 68.999 702.5 L68.999 702.5 Z " />
<glyph glyph-name="k" unicode="k" horiz-adv-x="505" d="M77 0 L160 0 L160 742 L77 742 L77 0 Z M268 280 L479 535 L380 535 L170 280 L385 0 L485 0 L268 280 Z " />
<glyph glyph-name="l" unicode="l" horiz-adv-x="245" d="M81 0 L165 0 L165 746 L81 746 L81 0 Z " />
<glyph glyph-name="m" unicode="m" horiz-adv-x="862" d="M160 535 L77 535 L77 0 L160 0 L160 293 C160 348.333 173.333 391.333 200 422 C226.667 452.667 256.667 468 290 468 C358 468 392 427.333 392 346 L392 0 L476 0 L476 293 C476 348.333 489.333 391.333 516 422 C542.667 452.667 573 468 607 468 C675 468 709 427.333 709 346 L709 0 L792 0 L792 367 C792 393 788.667 416.5 782 437.5 C775.333 458.5 765.333 476.833 752 492.5 C738.667 508.167 721.167 520.334 699.5 529.001 C677.833 537.668 652.666 542.001 623.999 542.001 C601.332 542.001 580.165 538.168 560.498 530.501 C540.831 522.834 522.831 511.167 506.498 495.5 C490.165 479.833 476.998 460.666 466.998 437.999 C445.665 507.332 393.332 541.999 309.999 541.999 C239.999 541.999 189.999 510.666 159.999 447.999 L160 535 Z " />
<glyph glyph-name="n" unicode="n" horiz-adv-x="568" d="M160 535 L77 535 L77 0 L160 0 L160 293 C160 347.667 174.333 390.5 203 421.5 C231.667 452.5 266.334 468 307.001 468 C339.001 468 365.001 457.5 385.001 436.5 C405.001 415.5 415.001 385.333 415.001 346 L415.001 0 L499.001 0 L499.001 368 C499.001 420.667 483.334 462.834 452.001 494.501 C420.668 526.168 379.335 542.001 328.002 542.001 C247.335 542.001 191.335 508.668 160.002 442.001 L160 535 Z " />
<glyph glyph-name="o" unicode="o" horiz-adv-x="592" d="M295 -9 C373.667 -9 435.334 16.833 480.001 68.5 C524.668 120.167 547.001 186 547.001 266 C547.001 318 537.834 364.333 519.501 405 C501.168 445.667 472.668 478.667 434.001 504 C395.334 529.333 349.001 542 295.001 542 C221.001 542 160.834 515.5 114.501 462.5 C68.168 409.5 45.001 343.333 45.001 264 C45.001 185.333 67.334 120.166 112.001 68.499 C156.668 16.832 217.667 -9 295 -9 L295 -9 Z M295.001 468.999 C323.668 468.999 349.001 463.499 371.001 452.499 C393.001 441.499 410.334 426.332 423.001 406.999 C435.668 387.666 445.001 365.999 451.001 341.999 C457.001 317.999 460.001 292.332 460.001 264.999 C460.001 207.666 445.834 159.833 417.501 121.5 C389.168 83.167 348.335 64 295.002 64 C245.669 64 206.169 83.667 176.502 123 C146.835 162.333 132.002 209.666 132.002 264.999 C132.002 301.666 138.002 335.166 150.002 365.499 C162.002 395.832 180.669 420.665 206.002 439.998 C231.335 459.331 261.001 468.999 295.001 468.999 L295.001 468.999 Z " />
<glyph glyph-name="p" unicode="p" horiz-adv-x="597" d="M312 68 C295.333 68 278.666 71.5 261.999 78.5 C245.332 85.5 228.999 96.167 212.999 110.5 C196.999 124.833 184.166 145.5 174.499 172.5 C164.832 199.5 159.999 231 159.999 267 C159.999 303.667 164.666 335.667 173.999 363 C183.332 390.333 195.832 411.333 211.499 426 C227.166 440.667 243.833 451.334 261.5 458.001 C279.167 464.668 297.667 468.001 317 468.001 C360.333 468.001 396.166 450.001 424.499 414.001 C452.832 378.001 466.999 330.668 466.999 272.001 C466.999 206.668 452.332 156.335 422.999 121.002 C393.666 85.6689 356.667 68 312 68 L312 68 Z M159.999 535.002 L76.999 535.002 L76.999 -207.998 L159.999 -207.998 L159.999 81.002 C198.666 21.6689 252.666 -7.99805 321.999 -7.99805 C390.666 -7.99805 446.333 18.1689 489 70.502 C531.667 122.835 553 190.002 553 272.002 C553 348.669 532.5 413.002 491.5 465.002 C450.5 517.002 394.667 543.002 324 543.002 C252.667 543.002 198 513.002 160 453.002 L159.999 535.002 Z " />
<glyph glyph-name="q" unicode="q" horiz-adv-x="597" d="M286 68 C241.333 68 204.5 85.667 175.5 121 C146.5 156.333 132 206.666 132 271.999 C132 330.666 146 377.999 174 413.999 C202 449.999 237.333 467.999 280 467.999 C300 467.999 318.667 464.666 336 457.999 C353.333 451.332 370 440.665 386 425.998 C402 411.331 414.667 390.331 424 362.998 C433.333 335.665 438 303.665 438 266.998 C438 230.998 433.167 199.498 423.5 172.498 C413.833 145.498 401.166 124.665 385.499 109.998 C369.832 95.3311 353.665 84.6641 336.998 77.9971 C320.331 71.3301 303.333 68 286 68 L286 68 Z M437.998 534.997 L437.998 454.997 C399.331 513.664 344.664 542.997 273.997 542.997 C202.664 542.997 146.664 516.997 105.997 464.997 C65.3301 412.997 44.9971 348.664 44.9971 271.997 C44.9971 189.997 66.1641 122.83 108.497 70.4971 C150.83 18.1641 206.33 -8.00293 274.997 -8.00293 C344.33 -8.00293 398.663 21.3301 437.996 79.9971 L437.996 -208.003 L520.996 -208.003 L520.996 534.997 L437.998 534.997 Z " />
<glyph glyph-name="r" unicode="r" horiz-adv-x="342" d="M160 535 L77 535 L76 0 L160 0 L160 293 C160 337.667 172.167 377.334 196.5 412.001 C220.833 446.668 251.666 464.001 288.999 464.001 C302.999 464.001 318.332 461.001 334.999 455.001 L334.999 538.001 C327.666 539.334 317.666 540.001 304.999 540.001 C236.999 540.001 188.666 507.001 159.999 441.001 L160 535 Z " />
<glyph glyph-name="s" unicode="s" horiz-adv-x="433" d="M368 517 C333.333 532.333 288.666 540 233.999 540 C201.332 540 171.832 534.333 145.499 523 C119.166 511.667 98.166 494.834 82.499 472.501 C66.832 450.168 58.999 424.001 58.999 394.001 C58.999 377.334 61.666 361.834 66.999 347.501 C72.332 333.168 78.999 321.001 86.999 311.001 C94.999 301.001 105.166 291.501 117.499 282.501 C129.832 273.501 141.665 266.168 152.998 260.501 C164.331 254.834 177.331 249.001 191.998 243.001 C234.665 225.668 265.498 209.668 284.498 195.001 C303.498 180.334 312.998 160.667 312.998 136 C312.998 114.667 304.665 97.5 287.998 84.5 C271.331 71.5 246.664 65 213.997 65 C159.33 65 108.663 79 61.9961 107 L61.9961 27 C103.329 5 155.662 -6 218.995 -6 C274.995 -6 318.995 7.16699 350.995 33.5 C382.995 59.833 398.995 96 398.995 142 C398.995 158.667 396.328 174.167 390.995 188.5 C385.662 202.833 378.829 215.166 370.496 225.499 C362.163 235.832 351.33 245.665 337.997 254.998 C324.664 264.331 311.831 272.164 299.498 278.497 C287.165 284.83 272.332 291.663 254.999 298.996 C252.332 300.329 247.999 302.329 241.999 304.996 C224.666 312.329 211.833 318.162 203.5 322.495 C195.167 326.828 185.334 332.828 174.001 340.495 C162.668 348.162 154.668 356.662 150.001 365.995 C145.334 375.328 143.001 385.995 143.001 397.995 C143.001 417.995 151.334 434.662 168.001 447.995 C184.668 461.328 207.001 467.995 235.001 467.995 C289.668 467.995 334.001 457.995 368.001 437.995 L368 517 Z " />
<glyph glyph-name="t" unicode="t" horiz-adv-x="388" d="M192 468 L340 468 L340 535 L192 535 L192 667 L108 667 L108 535 L24 535 L24 468 L108 468 L108 157 C108 49 161 -5 267 -5 C296.333 -5 322.333 1 345 13 L345 93 C324.333 77 300 69 272 69 C218.667 69 192 97.333 192 154 L192 468 Z " />
<glyph glyph-name="u" unicode="u" horiz-adv-x="568" d="M409 535 L409 240 C409 187.333 395.833 145.666 369.5 114.999 C343.167 84.332 308 68.999 264 68.999 C230 68.999 203.167 79.166 183.5 99.499 C163.833 119.832 154 148.999 154 186.999 L154 534.999 L71 534.999 L71 166.999 C71 114.332 86.333 72.332 117 40.999 C147.667 9.66602 189 -6.00098 241 -6.00098 C324.333 -6.00098 380.333 26.999 409 92.999 L409 -0.000976562 L492 -0.000976562 L492 534.999 L409 535 Z " />
<glyph glyph-name="v" unicode="v" horiz-adv-x="532" d="M213 0 L315 0 L507 535 L420 535 L344 309 C297.333 177 271 95.667 265 65 L186 309 L113 535 L27 535 L213 0 Z " />
<glyph glyph-name="w" unicode="w" horiz-adv-x="835" d="M191 0 L294 0 L342 175 C378.667 308.333 402.334 397.333 413.001 442 L487.001 175 L538.001 0 L641.001 0 L809.001 535 L723.001 535 L670.001 358 C625.334 214.667 598.001 122 588.001 80 L586.001 88 C584.668 93.333 582.168 102.833 578.501 116.5 C574.834 130.167 570.334 146.834 565.001 166.501 C559.668 186.168 552.168 213.001 542.501 247.001 C532.834 281.001 522.001 318.001 510.001 358.001 L457.001 535.001 L369.001 535.001 L318.001 358.001 C278.001 218.668 252.334 126.335 241.001 81.002 L236.001 104.002 C232.668 119.335 224.835 150.002 212.502 196.002 C200.169 242.002 185.002 295.669 167.002 357.002 L115.002 535.002 L27.002 535.002 L191 0 Z " />
<glyph glyph-name="x" unicode="x" horiz-adv-x="503" d="M299 273 L472 536 L377 536 L254 336 L133 536 L37 536 L206 274 L27 0 L118 0 L252 211 L382 0 L478 0 L299 273 Z " />
<glyph glyph-name="y" unicode="y" horiz-adv-x="519" d="M225 13 C195 -67 144.667 -107 74 -107 C60 -107 48 -105.667 38 -103 L38 -178 C49.333 -181.333 64 -183 82 -183 C130.667 -183 174 -168.5 212 -139.5 C250 -110.5 282.333 -59.667 309 13 L502 535 L412 535 L350 358 C299.333 215.333 271.333 134.666 266 115.999 L172 357.999 L102 534.999 L8 534.999 L225 13 Z " />
<glyph glyph-name="z" unicode="z" horiz-adv-x="476" d="M416 535 L57 535 L57 460 L317 460 L46 65 L46 0 L432 0 L432 75 L142 75 L416 474 L416 535 Z " />
<glyph glyph-name="braceleft" unicode="&#x7b;" horiz-adv-x="352" d="M339 744 C321 749.333 304.333 752 289 752 C251 752 218.5 737.5 191.5 708.5 C164.5 679.5 151 641.333 151 594 C151 575.333 154.833 549.333 162.5 516 C170.167 482.667 174 458.334 174 443.001 C174 422.334 170.667 403.334 164 386.001 C157.333 368.668 146.833 354.001 132.5 342.001 C118.167 330.001 101 322.334 81 319.001 C73.667 317.668 63.334 317.001 50.001 317.001 L50.001 236.001 C64.668 236.001 75.001 235.334 81.001 234.001 C113.001 227.334 136.501 212.834 151.501 190.501 C166.501 168.168 174.001 140.668 174.001 108.001 C174.001 92.668 170.168 68.501 162.501 35.501 C154.834 2.50098 151.001 -23.332 151.001 -41.999 C151.001 -89.332 164.501 -127.499 191.501 -156.499 C218.501 -185.499 251.001 -199.999 289.001 -199.999 C305.668 -199.999 322.335 -196.999 339.002 -190.999 L339.002 -108.999 C326.335 -115.666 314.668 -118.999 304.001 -118.999 C282.001 -118.999 265.334 -111.666 254.001 -96.999 C242.668 -82.332 237.001 -63.665 237.001 -40.998 C237.001 -22.998 240.834 4.00195 248.501 40.002 C256.168 76.002 260.001 104.669 260.001 126.002 C260.001 164.669 248.834 197.669 226.501 225.002 C204.168 252.335 172.335 269.335 131.002 276.002 C158.335 280.669 181.835 290.169 201.502 304.502 C221.169 318.835 235.836 336.502 245.503 357.502 C255.17 378.502 260.003 401.669 260.003 427.002 C260.003 447.669 256.17 475.669 248.503 511.002 C240.836 546.335 237.003 573.335 237.003 592.002 C237.003 606.669 239.336 619.836 244.003 631.503 C248.67 643.17 256.17 652.67 266.503 660.003 C276.836 667.336 289.336 671.003 304.003 671.003 C316.003 671.003 327.67 667.67 339.003 661.003 L339 744 Z " />
<glyph glyph-name="bar" unicode="&#x7c;" horiz-adv-x="239" d="M82 -205 L159 -205 L159 733 L82 733 L82 -205 Z " />
<glyph glyph-name="braceright" unicode="&#x7d;" horiz-adv-x="352" d="M13 661 C24.333 667.667 36.333 671 49 671 C70.333 671 86.666 663.5 97.999 648.5 C109.332 633.5 114.999 614.667 114.999 592 C114.999 573.333 111.499 546.333 104.499 511 C97.499 475.667 93.999 447.667 93.999 427 C93.999 401.667 98.666 378.5 107.999 357.5 C117.332 336.5 131.665 318.833 150.998 304.5 C170.331 290.167 193.664 280.667 220.997 276 C180.33 269.333 148.997 252.333 126.997 225 C104.997 197.667 93.9971 164.667 93.9971 126 C93.9971 104.667 97.4971 76 104.497 40 C111.497 4 114.997 -23 114.997 -41 C114.997 -63.667 109.33 -82.334 97.9971 -97.001 C86.6641 -111.668 70.3311 -119.001 48.998 -119.001 C37.665 -119.001 25.665 -115.668 12.998 -109.001 L12.998 -191.001 C29.665 -197.001 46.332 -200.001 62.999 -200.001 C101.666 -200.001 134.333 -185.501 161 -156.501 C187.667 -127.501 201 -89.334 201 -42.001 C201 -23.334 197.167 2.49902 189.5 35.499 C181.833 68.499 178 92.666 178 107.999 C178 129.332 181.167 148.332 187.5 164.999 C193.833 181.666 204 196.166 218 208.499 C232 220.832 249.667 229.332 271 233.999 C277 235.332 287.333 235.999 302 235.999 L302 316.999 C288.667 316.999 278.334 317.666 271.001 318.999 C241.001 323.666 218.001 337.499 202.001 360.499 C186.001 383.499 178.001 410.999 178.001 442.999 C178.001 458.332 181.834 482.665 189.501 515.998 C197.168 549.331 201.001 575.331 201.001 593.998 C201.001 617.998 197.334 639.998 190.001 659.998 C182.668 679.998 172.668 696.665 160.001 709.998 C147.334 723.331 132.667 733.664 116 740.997 C99.333 748.33 81.666 751.997 62.999 751.997 C47.666 751.997 30.999 749.33 12.999 743.997 L13 661 Z " />
<glyph glyph-name="asciitilde" unicode="&#x7e;" horiz-adv-x="631" d="M531 344 C506.333 301.333 474.666 280 435.999 280 C419.332 280 401.499 284.167 382.499 292.5 C363.499 300.833 346.332 309.833 330.999 319.5 C315.666 329.167 296.333 338 273 346 C249.667 354 226.334 358 203.001 358 C141.001 358 86.001 325 38.001 259 L94.001 210 C127.334 258 167.667 282 215 282 C233 282 254.5 275.667 279.5 263 C304.5 250.333 331.5 237.5 360.5 224.5 C389.5 211.5 417 205 443 205 C502.333 205 552.666 236.667 593.999 300 L531 344 Z " />
<glyph glyph-name="uni00A0" unicode="&#xa0;" horiz-adv-x="256" d="" />
<glyph glyph-name="exclamdown" unicode="&#xa1;" horiz-adv-x="264" d="M69 483 C69 465.667 74.833 451 86.5 439 C98.167 427 113 421 131 421 C149 421 164 427 176 439 C188 451 194 465.667 194 483 C194 501 188 515.833 176 527.5 C164 539.167 149 545 131 545 C113 545 98.167 539.167 86.5 527.5 C74.833 515.833 69 501 69 483 L69 483 Z M92 -174 L173 -174 L173 321 L92 321 L92 -174 Z " />
<glyph glyph-name="cent" unicode="&#xa2;" horiz-adv-x="475" d="M435 517 C409 529 381.333 536.667 352 540 L352 649 L279 649 L279 538 C207 528 150.5 497.167 109.5 445.5 C68.5 393.833 48 334 48 266 C48 196 68.5 135.5 109.5 84.5 C150.5 33.5 207 3.66699 279 -5 L279 -117 L352 -117 L352 -7 C383.333 -3.66699 411 3.33301 435 14 L435 93 C405 76.333 372 68 336 68 C272 68 222.5 86.667 187.5 124 C152.5 161.333 134.667 208.333 134 265 C134 302.333 142 336 158 366 C174 396 197.5 420.167 228.5 438.5 C259.5 456.833 295.333 466 336 466 C367.333 466 400.333 457 435 439 L435 517 Z " />
<glyph glyph-name="sterling" unicode="&#xa3;" horiz-adv-x="550" d="M170 73 C196.667 89.667 217.167 112 231.5 140 C245.833 168 253 209.333 253 264 C253 272.667 252.333 287.334 251 308.001 L435 308.001 L435 375.001 L245 375.001 C239 429.001 236 463.334 236 478.001 C236 570.001 282.333 616.001 375 616.001 C410.333 616.001 445.333 606.001 480 586.001 L480 668.001 C443.333 686.001 405.333 695.001 366 695.001 C297.333 695.001 244.166 675.834 206.499 637.501 C168.832 599.168 149.999 544.668 149.999 474.001 C149.999 462.001 153.332 429.001 159.999 375.001 L69.999 375.001 L69.999 308.001 L166.999 308.001 C168.332 287.334 168.999 272.334 168.999 263.001 C168.999 209.001 161.666 168.168 146.999 140.501 C132.332 112.834 104.665 89.334 63.998 70.001 L63.998 0.000976562 L509.998 0.000976562 L509.998 73.001 L170 73 Z " />
<glyph glyph-name="currency" unicode="&#xa4;" horiz-adv-x="572" d="M58 325 C58 273.667 71.333 229.667 98 193 L36 132 L90 80 L150 141 C187.333 115.667 231.833 103 283.5 103 C335.167 103 380.334 116.667 419.001 144 L484.001 80 L537.001 132 L472.001 196 C501.334 236 516.001 281.667 516.001 333 C516.001 381.667 502.668 425.667 476.001 465 L537.001 525 L484.001 577 L423.001 517 C384.334 543 340.001 556 290.001 556 C238.001 556 192.001 541.667 152.001 513 L90.001 577 L36.001 525 L100.001 460 C72.001 421.333 58 376.333 58 325 L58 325 Z M130.001 331 C130.001 375.667 144.834 412.834 174.501 442.501 C204.168 472.168 241.668 487.001 287.001 487.001 C302.334 487.001 316.834 485.168 330.501 481.501 C344.168 477.834 356.668 472.667 368.001 466 C379.334 459.333 389.667 451.166 399 441.499 C408.333 431.832 416.166 421.165 422.499 409.498 C428.832 397.831 433.832 385.164 437.499 371.497 C441.166 357.83 442.999 343.663 442.999 328.996 C442.999 282.996 428.332 245.329 398.999 215.996 C369.666 186.663 332.333 171.996 287 171.996 C241.667 171.996 204.167 186.996 174.5 216.996 C144.833 246.996 130.001 285 130.001 331 L130.001 331 Z " />
<glyph glyph-name="yen" unicode="&#xa5;" horiz-adv-x="616" d="M579 690 L482 690 L306 350 L132 690 L35 690 L201 382 L76 382 L76 319 L234 319 L263 267 L263 227 L76 227 L76 166 L263 166 L263 0 L349 0 L349 166 L537 166 L537 227 L349 227 L349 268 L378 319 L537 319 L537 382 L411 382 L579 690 Z " />
<glyph glyph-name="brokenbar" unicode="&#xa6;" horiz-adv-x="239" d="M159 387 L159 736 L82 736 L82 387 L159 387 Z M159 -187 L159 162 L82 162 L82 -187 L159 -187 Z " />
<glyph glyph-name="section" unicode="&#xa7;" horiz-adv-x="539" d="M139 316 C139 344 148.333 368.333 167 389 C176.333 385 186.5 380.667 197.5 376 C208.5 371.333 220.833 366 234.5 360 C248.167 354 258.667 349.333 266 346 C289.333 335.333 307.166 326.5 319.499 319.5 C331.832 312.5 345.165 303.667 359.498 293 C373.831 282.333 384.164 270.5 390.497 257.5 C396.83 244.5 399.997 230 399.997 214 C399.997 184.667 390.997 159.334 372.997 138.001 C343.664 153.334 315.331 166.667 287.998 178 C266.665 188 250.832 195.333 240.499 200 C230.166 204.667 217.166 211.667 201.499 221 C185.832 230.333 174.332 239 166.999 247 C159.666 255 153.166 265 147.499 277 C141.832 289 139 302 139 316 L139 316 Z M439.999 685 C399.332 706.333 346.999 717 282.999 717 C217.666 717 163.833 701.5 121.5 670.5 C79.167 639.5 58 594.667 58 536 C58 495.333 71.333 461.666 98 434.999 C68.667 401.666 54 361.666 54 314.999 C54 298.332 56 282.499 60 267.499 C64 252.499 69 239.499 75 228.499 C81 217.499 89.667 206.499 101 195.499 C112.333 184.499 122.5 175.666 131.5 168.999 C140.5 162.332 153 154.665 169 145.998 C185 137.331 197.667 130.831 207 126.498 C216.333 122.165 230 115.998 248 107.998 C251.333 106.665 253.666 105.665 254.999 104.998 C304.999 82.3311 340.499 62.1641 361.499 44.4971 C382.499 26.8301 392.999 3.66309 392.999 -25.0039 C392.999 -61.0039 380.666 -88.3369 355.999 -107.004 C331.332 -125.671 295.999 -135.004 249.999 -135.004 C215.332 -135.004 181.332 -129.671 147.999 -119.004 C114.666 -108.337 85.999 -94.0039 61.999 -76.0039 L61.999 -168.004 C113.332 -198.671 176.999 -214.004 252.999 -214.004 C320.332 -214.004 375.165 -197.504 417.498 -164.504 C459.831 -131.504 480.998 -84.6709 480.998 -24.0039 C480.998 21.3291 466.665 58.9961 437.998 88.9961 C467.998 122.329 482.998 163.996 482.998 213.996 C482.998 236.663 479.331 257.496 471.998 276.496 C464.665 295.496 456.332 311.163 446.999 323.496 C437.666 335.829 423.666 348.329 404.999 360.996 C386.332 373.663 370.665 383.163 357.998 389.496 C345.331 395.829 327.331 404.329 303.998 414.996 C293.998 419.663 281.998 424.83 267.998 430.497 C253.998 436.164 242.665 440.831 233.998 444.498 C225.331 448.165 215.831 452.498 205.498 457.498 C195.165 462.498 186.832 467.498 180.499 472.498 C174.166 477.498 168.166 483.165 162.499 489.498 C156.832 495.831 152.665 503.164 149.998 511.497 C147.331 519.83 145.998 528.997 145.998 538.997 C145.998 559.664 151.665 577.331 162.998 591.998 C174.331 606.665 190.664 617.832 211.997 625.499 C233.33 633.166 258.33 636.999 286.997 636.999 C304.997 636.999 323.33 635.166 341.997 631.499 C360.664 627.832 378.664 622.999 395.997 616.999 C413.33 610.999 427.997 603.666 439.997 594.999 L439.999 685 Z " />
<glyph glyph-name="dieresis" unicode="&#xa8;" horiz-adv-x="443" d="M61 762 C61 746.667 66.333 733.834 77 723.501 C87.667 713.168 100.667 708.001 116 708.001 C131.333 708.001 144.166 713.168 154.499 723.501 C164.832 733.834 169.999 746.667 169.999 762 C169.999 777.333 164.832 790.333 154.499 801 C144.166 811.667 131.333 817 116 817 C100.667 817 87.667 811.667 77 801 C66.333 790.333 61 777.333 61 762 L61 762 Z M274 762 C274 746.667 279 733.834 289 723.501 C299 713.168 312 708.001 328 708.001 C343.333 708.001 356.333 713.168 367 723.501 C377.667 733.834 383 746.667 383 762 C383 777.333 377.667 790.333 367 801 C356.333 811.667 343.333 817 328 817 C317.333 817 308 814.5 300 809.5 C292 804.5 285.667 797.833 281 789.5 C276.333 781.167 274 772 274 762 L274 762 Z " />
<glyph glyph-name="copyright" unicode="&#xa9;" horiz-adv-x="817" d="M45 354 C45 289.333 61.333 229 94 173 C126.667 117 171 72.667 227 40 C283 7.33301 343.667 -9 409 -9 C474.333 -9 535 7.33301 591 40 C647 72.667 691.5 117 724.5 173 C757.5 229 774 289.333 774 354 C774 420 757.5 481 724.5 537 C691.5 593 647 637.333 591 670 C535 702.667 474.333 719 409 719 C343.667 719 283 702.667 227 670 C171 637.333 126.667 593 94 537 C61.333 481 45 420 45 354 L45 354 Z M116 354 C116 407.333 129.167 456.833 155.5 502.5 C181.833 548.167 217.5 584.167 262.5 610.5 C307.5 636.833 356.667 650 410 650 C463.333 650 512.666 636.833 557.999 610.5 C603.332 584.167 639.165 548.167 665.498 502.5 C691.831 456.833 704.998 407.333 704.998 354 C704.998 272.667 676.165 203.334 618.498 146.001 C560.831 88.668 491.331 60.001 409.998 60.001 C328.665 60.001 259.332 88.668 201.999 146.001 C144.666 203.334 116 272.667 116 354 L116 354 Z M308.999 352 C308.999 392 321.166 424.5 345.499 449.5 C369.832 474.5 401.332 487 439.999 487 C469.332 487 496.665 479.333 521.998 464 L521.998 531 C495.331 545.667 466.331 553 434.998 553 C373.665 553 325.165 533.333 289.498 494 C253.831 454.667 235.664 407.667 234.997 353 C234.997 297.667 252.997 251 288.997 213 C324.997 175 373.33 156 433.997 156 C470.664 156 499.997 163 521.997 177 L521.997 246 C512.664 238.667 500.331 232.334 484.998 227.001 C469.665 221.668 454.665 219.001 439.998 219.001 C413.998 219.001 390.998 225.001 370.998 237.001 C350.998 249.001 335.831 265.001 325.498 285.001 C315.165 305.001 309.666 327.333 308.999 352 L308.999 352 Z " />
<glyph glyph-name="ordfeminine" unicode="&#xaa;" horiz-adv-x="368" d="M267 620 L267 558 C267 534 257.167 513.333 237.5 496 C217.833 478.667 193 470 163 470 C135 470 113.333 476.5 98 489.5 C82.667 502.5 75 520 75 542 C75 594 117 620 201 620 L267 620 Z M35 770 C72.333 796 115 809 163 809 C201 809 227.833 799.833 243.5 781.5 C259.167 763.167 267 736 267 700 L267 678 L187 678 C129.667 678 84.5 665.833 51.5 641.5 C18.5 617.167 2 583.334 2 540.001 C2 500.001 14.833 468.168 40.5 444.501 C66.167 420.834 100.334 409.001 143.001 409.001 C195.668 409.001 237.668 429.668 269.001 471.001 L269.001 413.001 L338.001 413.001 L338.001 698.001 C338.001 755.334 324.501 798.501 297.501 827.501 C270.501 856.501 227.334 871.001 168.001 871.001 C118.001 871.001 73.668 860.001 35.001 838.001 L35 770 Z " />
<glyph glyph-name="guillemotleft" unicode="&#xab;" horiz-adv-x="505" d="M278 438 L186 438 L29 267 L186 96 L278 96 L125 267 L278 438 Z M475 438 L383 438 L225 267 L383 96 L475 96 L320 267 L475 438 Z " />
<glyph glyph-name="logicalnot" unicode="&#xac;" horiz-adv-x="578" d="M540 169 L540 436 L27 436 L27 360 L464 360 L464 169 L540 169 Z " />
<glyph glyph-name="uni00AD" unicode="&#xad;" horiz-adv-x="366" d="M60 247 L307 247 L307 319 L60 319 L60 247 Z " />
<glyph glyph-name="registered" unicode="&#xae;" horiz-adv-x="472" d="M214 687 L237 687 C249 687 257.667 684.5 263 679.5 C268.333 674.5 271 665.667 271 653 C271 630.333 260.667 619 240 619 L214 619 L214 687 Z M168 724 L168 499 L214 499 L214 581 L234 581 L282 499 L338 499 L280 589 C305.333 600.333 318 621.666 318 652.999 C318 700.332 289.333 723.999 232 723.999 L168 724 Z M238 427.999 C202.667 427.999 171.667 435.499 145 450.499 C118.333 465.499 97.833 486.332 83.5 512.999 C69.167 539.666 62 570.333 62 605 C62 657.667 78 700.334 110 733.001 C142 765.668 184.667 782.001 238 782.001 C272.667 782.001 303.334 774.501 330.001 759.501 C356.668 744.501 377.335 723.668 392.002 697.001 C406.669 670.334 414.002 639.667 414.002 605 C414.002 552.333 397.835 509.666 365.502 476.999 C333.169 444.332 290.667 427.999 238 427.999 L238 427.999 Z M237.002 830.999 C171.002 830.999 116.669 809.666 74.002 766.999 C31.335 724.332 10.002 670.332 10.002 604.999 C10.002 539.666 31.335 485.833 74.002 443.5 C116.669 401.167 171.002 380 237.002 380 C280.335 380 319.168 389.5 353.501 408.5 C387.834 427.5 414.834 454.167 434.501 488.5 C454.168 522.833 464.001 561.666 464.001 604.999 C464.001 670.332 442.501 724.332 399.501 766.999 C356.501 809.666 302.335 830.999 237.002 830.999 L237.002 830.999 Z " />
<glyph glyph-name="macron" unicode="&#xaf;" horiz-adv-x="443" d="M370 731 L370 790 L73 790 L73 731 L370 731 Z " />
<glyph glyph-name="degree" unicode="&#xb0;" horiz-adv-x="373" d="M32 559 C32 514.333 46.333 477.833 75 449.5 C103.667 421.167 140.334 407 185.001 407 C229.668 407 267.168 421.833 297.501 451.5 C327.834 481.167 343.001 518 343.001 562 C343.001 606 328.334 642.167 299.001 670.5 C269.668 698.833 232.668 713 188.001 713 C143.334 713 106.167 698.5 76.5 669.5 C46.833 640.5 32 603.667 32 559 L32 559 Z M98 560 C98 586 106.333 607.833 123 625.5 C139.667 643.167 160.5 652 185.5 652 C210.5 652 231.667 643 249 625 C266.333 607 275 585.333 275 560 C275 534.667 266.833 513.334 250.5 496.001 C234.167 478.668 213.334 470.001 188.001 470.001 C163.334 470.001 142.167 478.668 124.5 496.001 C106.833 513.334 98 534.667 98 560 L98 560 Z " />
<glyph glyph-name="plusminus" unicode="&#xb1;" horiz-adv-x="582" d="M60 32 L524 32 L524 105 L60 105 L60 32 Z M327 422 L327 600 L249 600 L249 422 L60 422 L60 349 L249 349 L249 171 L327 171 L327 349 L524 349 L524 422 L327 422 Z " />
<glyph glyph-name="uni00B2" unicode="&#xb2;" horiz-adv-x="384" d="M49 413 L344 413 L344 472 L143 472 C198.333 513.333 243 556.833 277 602.5 C311 648.167 328 691.667 328 733 C328 777 313.5 811 284.5 835 C255.5 859 220.333 871 179 871 C142.333 871 104 859.333 64 836 L64 763 C101.333 793.667 139 809 177 809 C201 809 220.667 802.333 236 789 C251.333 775.667 259 755.334 259 728.001 C259 658.668 189 571.335 49 466.002 L49 413 Z " />
<glyph glyph-name="uni00B3" unicode="&#xb3;" horiz-adv-x="341" d="M108 672 L108 614 L134 614 C167.333 614 192.833 607.333 210.5 594 C228.167 580.667 237 562.334 237 539.001 C237 525.001 233.667 512.834 227 502.501 C220.333 492.168 210.833 484.168 198.5 478.501 C186.167 472.834 171.334 470.001 154.001 470.001 C111.334 470.001 72.334 479.668 37.001 499.001 L37.001 436.001 C73.001 418.001 113.334 409.001 158.001 409.001 C204.668 409.001 241.001 420.668 267.001 444.001 C293.001 467.334 306.001 498.001 306.001 536.001 C306.001 565.334 296.501 590.334 277.501 611.001 C258.501 631.668 236.001 643.001 210.001 645.001 C236.001 650.334 256.501 662.167 271.501 680.5 C286.501 698.833 294.001 721.666 294.001 748.999 C294.001 783.666 281.334 812.666 256.001 835.999 C230.668 859.332 194.668 870.999 148.001 870.999 C115.334 870.999 82.334 861.999 49.001 843.999 L49.001 777.999 C83.668 799.332 116.001 809.999 146.001 809.999 C198.001 809.999 224.001 787.999 224.001 743.999 C224.001 721.332 215.334 703.665 198.001 690.998 C180.668 678.331 159.335 671.998 134.002 671.998 L108 672 Z " />
<glyph glyph-name="acute" unicode="&#xb4;" horiz-adv-x="443" d="M122 677 L194 677 L324 842 L226 842 L122 677 Z " />
<glyph glyph-name="mu" unicode="&#xb5;" horiz-adv-x="575" d="M415 535 L415 240 C415 186.667 403.833 144.834 381.5 114.501 C359.167 84.168 328 69.001 288 69.001 C266 69.001 245.5 73.168 226.5 81.501 C207.5 89.834 191.667 103.334 179 122.001 C166.333 140.668 160 162.335 160 187.002 L160 535.002 L77 535.002 L77 -187.998 L160 -187.998 L160 34.002 C190.667 7.33496 229 -5.99805 275 -5.99805 C343 -5.99805 389.667 23.002 415 81.002 L415 0.00195312 L499 0.00195312 L499 535.002 L415 535 Z " />
<glyph glyph-name="paragraph" unicode="&#xb6;" horiz-adv-x="574" d="M302 711 L231 711 C166.333 711 116.333 693.167 81 657.5 C45.667 621.833 28 580.333 28 533 C28 483.667 45.167 442.334 79.5 409.001 C113.833 375.668 163 359.001 227 359.001 L227 -156.999 L302 -156.999 L302 711 Z M423 -156.999 L497 -156.999 L497 711.001 L423 711.001 L423 -156.999 Z " />
<glyph glyph-name="periodcentered" unicode="&#xb7;" horiz-adv-x="244" d="M60 337 C60 319.667 66 304.834 78 292.501 C90 280.168 104.833 274.001 122.5 274.001 C140.167 274.001 154.834 280.001 166.501 292.001 C178.168 304.001 184.001 318.834 184.001 336.501 C184.001 354.168 178.168 369.001 166.501 381.001 C154.834 393.001 140.167 399.001 122.5 399.001 C104.833 399.001 90 393.001 78 381.001 C66 369.001 60 354.333 60 337 L60 337 Z " />
<glyph glyph-name="cedilla" unicode="&#xb8;" horiz-adv-x="443" d="M301 -129 C301 -97 294.333 -72 281 -54 L207 -54 C223 -81.333 231 -106.666 231 -129.999 C231 -151.999 223.333 -169.499 208 -182.499 C192.667 -195.499 170.667 -202.999 142 -204.999 L142 -265.999 C193.333 -264.666 232.666 -250.999 259.999 -224.999 C287.332 -198.999 301 -167 301 -129 L301 -129 Z " />
<glyph glyph-name="uni00B9" unicode="&#xb9;" horiz-adv-x="263" d="M10 728 L124 790 L124 413 L188 413 L188 867 L134 867 L10 796 L10 728 Z " />
<glyph glyph-name="ordmasculine" unicode="&#xba;" horiz-adv-x="396" d="M196 407 C260.667 407 311.167 429 347.5 473 C383.833 517 402 573 402 641 C402 662.333 400 682.833 396 702.5 C392 722.167 386.333 740.667 379 758 C371.667 775.333 362.167 791 350.5 805 C338.833 819 325.5 831.167 310.5 841.5 C295.5 851.833 278.333 859.666 259 864.999 C239.667 870.332 218.667 872.999 196 872.999 C135.333 872.999 86.5 850.499 49.5 805.499 C12.5 760.499 -6 704.999 -6 638.999 C-6 571.666 11.833 516.166 47.5 472.499 C83.167 428.832 132.667 407 196 407 L196 407 Z M196 810.999 C242 810.999 275.667 794.832 297 762.499 C318.333 730.166 329 689.333 329 640 C329 590.667 317.667 549.834 295 517.501 C272.333 485.168 239.666 469.001 196.999 469.001 C156.999 469.001 125.332 485.501 101.999 518.501 C78.666 551.501 66.999 591.834 66.999 639.501 C66.999 687.168 78.332 727.668 100.999 761.001 C123.666 794.334 155.333 810.999 196 810.999 L196 810.999 Z " />
<glyph glyph-name="guillemotright" unicode="&#xbb;" horiz-adv-x="507" d="M123 438 L31 438 L185 267 L31 96 L123 96 L281 267 L123 438 Z M318 438 L227 438 L382 267 L227 96 L318 96 L478 267 L318 438 Z " />
<glyph glyph-name="onequarter" unicode="&#xbc;" horiz-adv-x="876" d="M181 297 L248 297 L248 750 L193 750 L69 679 L69 611 L181 673 L181 297 Z M627 751 L151 0 L227 0 L702 751 L627 751 Z M560 159 L700 401 L700 159 L560 159 Z M830 159 L764 159 L764 452 L665 452 L492 159 L492 104 L700 104 L700 0 L764 0 L764 104 L830 104 L830 159 Z " />
<glyph glyph-name="onehalf" unicode="&#xbd;" horiz-adv-x="877" d="M542 0 L836 0 L836 58 L637 58 C692.333 100 737 143.833 771 189.5 C805 235.167 822 278.334 822 319.001 C822 363.001 807.333 397.001 778 421.001 C748.667 445.001 713.334 457.001 672.001 457.001 C634.001 457.001 595.668 445.668 557.001 423.001 L557.001 350.001 C594.334 380.668 632.001 396.001 670.001 396.001 C694.001 396.001 713.501 389.168 728.501 375.501 C743.501 361.834 751.001 341.334 751.001 314.001 C751.001 276.001 731.168 234.001 691.501 188.001 C651.834 142.001 602.001 96.668 542.001 52.001 L542 0 Z M69.001 611.001 L181.001 673.001 L181.001 297.001 L248.001 297.001 L248.001 750.001 L193.001 750.001 L69.001 679.001 L69.001 611.001 Z M151.001 0.000976562 L227.001 0.000976562 L702.001 751.001 L627.001 751.001 L151.001 0.000976562 Z " />
<glyph glyph-name="threequarters" unicode="&#xbe;" horiz-adv-x="912" d="M89 660 C124.333 682 156.333 693 185 693 C209.667 693 228.834 687.5 242.501 676.5 C256.168 665.5 263.001 648.667 263.001 626 C263.001 610.667 258.834 597.667 250.501 587 C242.168 576.333 231.335 568.333 218.002 563 C204.669 557.667 189.669 555 173.002 555 L147.002 555 L147.002 496 L173.002 496 C206.335 496 231.835 489.667 249.502 477 C267.169 464.333 276.002 446 276.002 422 C276.002 400.667 268.502 383.667 253.502 371 C238.502 358.333 218.335 352 193.002 352 C151.669 352 112.669 362 76.002 382 L76.002 318 C110.669 301.333 150.669 293 196.002 293 C242.669 293 279.169 304.667 305.502 328 C331.835 351.333 345.002 381.666 345.002 418.999 C345.002 438.999 340.502 456.999 331.502 472.999 C322.502 488.999 310.835 501.666 296.502 510.999 C282.169 520.332 266.336 525.665 249.003 526.998 C266.336 530.998 281.169 537.665 293.502 546.998 C305.835 556.331 315.502 568.164 322.502 582.497 C329.502 596.83 333.002 612.997 333.002 630.997 C333.002 665.664 320.335 694.831 295.002 718.498 C269.669 742.165 233.669 753.998 187.002 753.998 C153.002 753.998 120.335 744.998 89.002 726.998 L89 660 Z M687.002 750.998 L211.002 -0.00195312 L287.002 -0.00195312 L761.002 750.998 L687.002 750.998 Z M619.002 158.998 L759.002 399.998 L759.002 158.998 L619.002 158.998 Z M889.002 158.998 L824.002 158.998 L824.002 451.998 L724.002 451.998 L552.002 158.998 L552.002 103.998 L759.002 103.998 L759.002 -0.00195312 L824.002 -0.00195312 L824.002 103.998 L889.002 103.998 L889.002 158.998 Z " />
<glyph glyph-name="questiondown" unicode="&#xbf;" horiz-adv-x="475" d="M437 -55 C383.667 -89 329 -106 273 -106 C226.333 -106 191.5 -95.167 168.5 -73.5 C145.5 -51.833 134 -23 134 13 C134 57.667 151.667 91 187 113 C222.333 135 272.333 146 337 146 L336 321 L255 321 L254 207 C234.667 205 215.334 201.333 196.001 196 C176.668 190.667 158.001 182.5 140.001 171.5 C122.001 160.5 106.168 147.667 92.501 133 C78.834 118.333 67.834 100.5 59.501 79.5 C51.168 58.5 47.001 35.333 47.001 10 C47.001 -50.667 67.001 -97.834 107.001 -131.501 C147.001 -165.168 200.668 -182.001 268.001 -182.001 C300.668 -182.001 332.001 -178.001 362.001 -170.001 C392.001 -162.001 417.001 -151.668 437.001 -139.001 L437 -55 Z M358.001 483.999 C358.001 501.332 352.334 515.832 341.001 527.499 C329.668 539.166 315.335 544.999 298.002 544.999 C279.335 544.999 263.835 539.166 251.502 527.499 C239.169 515.832 233.002 501.332 233.002 483.999 C233.002 466.666 239.335 451.833 252.002 439.5 C264.669 427.167 280.002 421 298.002 421 C315.335 421 329.668 427.167 341.001 439.5 C352.334 451.833 358.001 466.666 358.001 483.999 L358.001 483.999 Z " />
<glyph glyph-name="Agrave" unicode="&#xc0;" horiz-adv-x="682" d="M373 766 L270 931 L170 931 L301 766 L373 766 Z M216 260 L230 300 C296.667 498.667 334.667 613 344 643 L350 623 C353.333 610.333 364.166 575.5 382.499 518.5 C400.832 461.5 424.665 389 453.998 301 L468.998 260 L216 260 Z M554.998 0 L646.998 0 L402.998 711 L283.998 711 L36.998 0 L128.998 0 L191.998 186 L491.998 186 L554.998 0 Z " />
<glyph glyph-name="Aacute" unicode="&#xc1;" horiz-adv-x="682" d="M519 931 L420 931 L315 766 L388 766 L519 931 Z M216 260 L230 300 C296.667 498.667 334.667 613 344 643 L350 623 C353.333 610.333 364.166 575.5 382.499 518.5 C400.832 461.5 424.665 389 453.998 301 L468.998 260 L216 260 Z M554.998 0 L646.998 0 L402.998 711 L283.998 711 L36.998 0 L128.998 0 L191.998 186 L491.998 186 L554.998 0 Z " />
<glyph glyph-name="Acircumflex" unicode="&#xc2;" horiz-adv-x="682" d="M345 878 L435 766 L519 766 L385 931 L305 931 L171 766 L255 766 L345 878 Z M216 260 L230 300 C296.667 498.667 334.667 613 344 643 L350 623 C353.333 610.333 364.166 575.5 382.499 518.5 C400.832 461.5 424.665 389 453.998 301 L468.998 260 L216 260 Z M554.998 0 L646.998 0 L402.998 711 L283.998 711 L36.998 0 L128.998 0 L191.998 186 L491.998 186 L554.998 0 Z " />
<glyph glyph-name="Atilde" unicode="&#xc3;" horiz-adv-x="682" d="M471 907 C457.667 877 438.334 862 413.001 862 C400.334 862 378.834 869.667 348.501 885 C318.168 900.333 292.668 908 272.001 908 C257.334 908 242.834 904.5 228.501 897.5 C214.168 890.5 201.668 881.5 191.001 870.5 C180.334 859.5 172.001 847 166.001 833 L211.001 794 C220.334 811.333 230.501 824.166 241.501 832.499 C252.501 840.832 266.001 844.999 282.001 844.999 C293.334 844.999 314.167 837.166 344.5 821.499 C374.833 805.832 399.333 797.999 418 797.999 C440 797.999 460 804.332 478 816.999 C496 829.666 510.667 847.666 522 870.999 L471 907 Z M216 259.999 L230 299.999 C296.667 498.666 334.667 612.999 344 642.999 L350 622.999 C353.333 610.332 364.166 575.499 382.499 518.499 C400.832 461.499 424.665 388.999 453.998 300.999 L468.998 259.999 L216 259.999 Z M554.998 -0.000976562 L646.998 -0.000976562 L402.998 710.999 L283.998 710.999 L36.998 -0.000976562 L128.998 -0.000976562 L191.998 185.999 L491.998 185.999 L554.998 -0.000976562 Z " />
<glyph glyph-name="Adieresis" unicode="&#xc4;" horiz-adv-x="682" d="M451 795 C467 795 480.333 800.167 491 810.5 C501.667 820.833 507 833.833 507 849.5 C507 865.167 501.667 878.167 491 888.5 C480.333 898.833 467 904 451 904 C435.667 904 423 898.833 413 888.5 C403 878.167 398 865.167 398 849.5 C398 833.833 403 820.833 413 810.5 C423 800.167 435.667 795 451 795 L451 795 Z M239 795 C254.333 795 267.333 800.333 278 811 C288.667 821.667 294 834.667 294 850 C294 865.333 288.667 878.166 278 888.499 C267.333 898.832 254.333 903.999 239 903.999 C223 903.999 209.833 898.832 199.5 888.499 C189.167 878.166 184 865.333 184 850 C184 839.333 186.333 830 191 822 C195.667 814 202.167 807.5 210.5 802.5 C218.833 797.5 228.333 795 239 795 L239 795 Z M216 260 L230 300 C296.667 498.667 334.667 613 344 643 L350 623 C353.333 610.333 364.166 575.5 382.499 518.5 C400.832 461.5 424.665 389 453.998 301 L468.998 260 L216 260 Z M554.998 0 L646.998 0 L402.998 711 L283.998 711 L36.998 0 L128.998 0 L191.998 186 L491.998 186 L554.998 0 Z " />
<glyph glyph-name="Aring" unicode="&#xc5;" horiz-adv-x="682" d="M345 926 C361 926 374.5 920.5 385.5 909.5 C396.5 898.5 402 885 402 869 C402 853.667 396.5 840.334 385.5 829.001 C374.5 817.668 361 812.001 345 812.001 C329 812.001 315.667 817.668 305 829.001 C294.333 840.334 289 853.667 289 869 C289 877 290.5 884.5 293.5 891.5 C296.5 898.5 300.5 904.5 305.5 909.5 C310.5 914.5 316.333 918.5 323 921.5 C329.667 924.5 337 926 345 926 L345 926 Z M345 756 C375.667 756 401.834 767 423.501 789 C445.168 811 456.001 837.333 456.001 868 C456.001 899.333 445.168 926 423.501 948 C401.834 970 375.667 981 345 981 C314.333 981 288 970 266 948 C244 926 233 899.333 233 868 C233 838 244 811.833 266 789.5 C288 767.167 314.333 756 345 756 L345 756 Z M216 260 L230 300 C296.667 498.667 334.667 613 344 643 L350 623 C353.333 610.333 364.166 575.5 382.499 518.5 C400.832 461.5 424.665 389 453.998 301 L468.998 260 L216 260 Z M554.998 0 L646.998 0 L402.998 711 L283.998 711 L36.998 0 L128.998 0 L191.998 186 L491.998 186 L554.998 0 Z " />
<glyph glyph-name="AE" unicode="&#xc6;" horiz-adv-x="927" d="M266 260 L289 300 C379.667 457.333 443.667 572 481 644 L481 260 L266 260 Z M565 75 L565 317 L835 317 L835 392 L565 392 L565 636 L870 636 L870 711 L428 711 L25 0 L116 0 L224 186 L481 186 L481 0 L877 0 L877 75 L565 75 Z " />
<glyph glyph-name="Ccedilla" unicode="&#xc7;" horiz-adv-x="634" d="M351 -54 C367.667 -82 376 -107.333 376 -130 C376 -144.667 372.667 -157.334 366 -168.001 C359.333 -178.668 349.333 -187.168 336 -193.501 C322.667 -199.834 306.334 -203.667 287.001 -205 L287.001 -266 C338.334 -264.667 377.501 -251 404.501 -225 C431.501 -199 445.001 -167 445.001 -129 C445.001 -96.333 438.668 -71.333 426.001 -54 L351 -54 Z M588.001 683 C543.334 707.667 483.334 720 408.001 720 C358.001 720 311.001 711.333 267.001 694 C223.001 676.667 185.168 652.334 153.501 621.001 C121.834 589.668 96.667 551.335 78 506.002 C59.333 460.669 50 411.336 50 358.003 C50 245.336 83.5 156.169 150.5 90.502 C217.5 24.835 304.333 -7.99805 411 -7.99805 C487 -7.99805 546.667 6.66895 590 36.002 L590 126.002 C542.667 90.002 485.334 72.002 418.001 72.002 C334.668 72.002 267.501 97.835 216.501 149.502 C165.501 201.169 140.001 270.669 140.001 358.002 C140.001 442.002 165.668 510.169 217.001 562.502 C268.334 614.835 332.001 641.002 408.001 641.002 C436.001 641.002 460.501 639.169 481.501 635.502 C502.501 631.835 520.501 627.002 535.501 621.002 C550.501 615.002 568.001 606.335 588.001 595.002 L588.001 683 Z " />
<glyph glyph-name="Egrave" unicode="&#xc8;" horiz-adv-x="528" d="M338 765 L234 930 L134 930 L265 765 L338 765 Z M167 75 L167 317 L437 317 L437 392 L167 392 L167 636 L473 636 L473 711 L81 711 L81 0 L478 0 L478 75 L167 75 Z " />
<glyph glyph-name="Eacute" unicode="&#xc9;" horiz-adv-x="528" d="M460 931 L362 931 L258 766 L331 766 L460 931 Z M167 75 L167 317 L437 317 L437 392 L167 392 L167 636 L473 636 L473 711 L81 711 L81 0 L478 0 L478 75 L167 75 Z " />
<glyph glyph-name="Ecircumflex" unicode="&#xca;" horiz-adv-x="528" d="M288 878 L378 766 L462 766 L328 931 L248 931 L114 766 L199 766 L288 878 Z M167 75 L167 317 L437 317 L437 392 L167 392 L167 636 L473 636 L473 711 L81 711 L81 0 L478 0 L478 75 L167 75 Z " />
<glyph glyph-name="Edieresis" unicode="&#xcb;" horiz-adv-x="528" d="M389 794 C405 794 418.167 799.167 428.5 809.5 C438.833 819.833 444 833 444 849 C444 859 441.667 868.167 437 876.5 C432.333 884.833 425.833 891.333 417.5 896 C409.167 900.667 399.667 903 389 903 C373.667 903 361 897.833 351 887.5 C341 877.167 336 864.167 336 848.5 C336 832.833 341 819.833 351 809.5 C361 799.167 373.667 794 389 794 L389 794 Z M177 794 C192.333 794 205.166 799.167 215.499 809.5 C225.832 819.833 230.999 833 230.999 849 C230.999 855 230.166 860.833 228.499 866.5 C226.832 872.167 224.332 877.167 220.999 881.5 C217.666 885.833 213.833 889.666 209.5 892.999 C205.167 896.332 200.167 898.832 194.5 900.499 C188.833 902.166 183 902.999 177 902.999 C161 902.999 148 897.832 138 887.499 C128 877.166 123 864.166 123 848.499 C123 832.832 128 819.832 138 809.499 C148 799.166 161 794 177 794 L177 794 Z M167 74.999 L167 316.999 L437 316.999 L437 391.999 L167 391.999 L167 635.999 L473 635.999 L473 710.999 L81 710.999 L81 -0.000976562 L478 -0.000976562 L478 74.999 L167 74.999 Z " />
<glyph glyph-name="Igrave" unicode="&#xcc;" horiz-adv-x="259" d="M88 0 L173 0 L173 711 L88 711 L88 0 Z M58 931 L-42 931 L89 766 L162 766 L58 931 Z " />
<glyph glyph-name="Iacute" unicode="&#xcd;" horiz-adv-x="259" d="M88 0 L173 0 L173 711 L88 711 L88 0 Z M98 766 L171 766 L302 931 L203 931 L98 766 Z " />
<glyph glyph-name="Icircumflex" unicode="&#xce;" horiz-adv-x="259" d="M91 931 L-43 766 L41 766 L131 878 L220 766 L305 766 L171 931 L91 931 Z M88 0 L173 0 L173 711 L88 711 L88 0 Z " />
<glyph glyph-name="Idieresis" unicode="&#xcf;" horiz-adv-x="259" d="M88 0 L173 0 L173 711 L88 711 L88 0 Z M-29 849.5 C-29 833.833 -23.667 820.833 -13 810.5 C-2.33301 800.167 11 795 27 795 C42.333 795 55 800.167 65 810.5 C75 820.833 80 833.833 80 849.5 C80 865.167 75 878.167 65 888.5 C55 898.833 42.333 904 27 904 C11 904 -2.33301 898.833 -13 888.5 C-23.667 878.167 -29 865.167 -29 849.5 L-29 849.5 Z M184 850 C184 839.333 186.333 829.833 191 821.5 C195.667 813.167 202.167 806.667 210.5 802 C218.833 797.333 228 795 238 795 C254 795 267.333 800.167 278 810.5 C288.667 820.833 294 833.833 294 849.5 C294 865.167 288.667 878.167 278 888.5 C267.333 898.833 254 904 238 904 C222.667 904 209.834 898.833 199.501 888.5 C189.168 878.167 184 865.333 184 850 L184 850 Z " />
<glyph glyph-name="Eth" unicode="&#xd0;" horiz-adv-x="769" d="M240 75 L240 320 L425 320 L425 392 L240 392 L240 634 L364 634 C444.667 634 509.834 607.667 559.501 555 C609.168 502.333 634.001 437.333 634.001 360 C634.001 322 628.834 286.167 618.501 252.5 C608.168 218.833 592.501 188.666 571.501 161.999 C550.501 135.332 522.668 114.165 488.001 98.498 C453.334 82.8311 413.667 74.998 369 74.998 L240 75 Z M154 710.998 L154 391.998 L64 391.998 L64 319.998 L154 319.998 L154 -0.00195312 L369 -0.00195312 C425.667 -0.00195312 476.834 9.66504 522.501 28.998 C568.168 48.3311 605.335 74.6641 634.002 107.997 C662.669 141.33 684.669 179.497 700.002 222.497 C715.335 265.497 723.002 311.33 723.002 359.997 C723.002 463.997 689.669 548.497 623.002 613.497 C556.335 678.497 470.335 710.997 365.002 710.997 L154 710.998 Z " />
<glyph glyph-name="Ntilde" unicode="&#xd1;" horiz-adv-x="709" d="M81 0 L167 0 L167 300 C167 432.667 165.333 535.667 162 609 L180 576 C192 554 213.167 517 243.5 465 C273.833 413 307 357.333 343 298 L521 0 L628 0 L628 711 L543 711 L543 410 C543 273.333 544.333 171 547 103 L529 134 C517.667 154.667 497 190.667 467 242 C437 293.333 403.667 349.666 367 410.999 L188 710.999 L81 710.999 L81 0 Z M490 906.999 C477.333 876.999 458.666 861.999 433.999 861.999 C421.332 861.999 399.832 869.666 369.499 884.999 C339.166 900.332 313.666 907.999 292.999 907.999 C270.332 907.999 249.165 900.832 229.498 886.499 C209.831 872.166 194.998 854.333 184.998 833 L230.998 794 C248.998 828 272.998 845 302.998 845 C313.665 845 334.165 837.167 364.498 821.5 C394.831 805.833 419.331 798 437.998 798 C459.331 798 479.164 804.333 497.497 817 C515.83 829.667 530.663 847.667 541.996 871 L490 906.999 Z " />
<glyph glyph-name="Ograve" unicode="&#xd2;" horiz-adv-x="737" d="M50 358 C50 247.333 79.333 158.666 138 91.999 C196.667 25.332 274 -8.00098 370 -8.00098 C467.333 -8.00098 544.833 25.166 602.5 91.499 C660.167 157.832 689 246.665 689 357.998 C689 470.665 660.667 559.832 604 625.499 C547.333 691.166 469 723.999 369 723.999 C271.667 723.999 194.167 690.999 136.5 624.999 C78.833 558.999 50 470 50 358 L50 358 Z M140 357.999 C140 417.332 149 468.499 167 511.499 C185 554.499 211.333 587.499 246 610.499 C280.667 633.499 321.667 644.999 369 644.999 C441.667 644.999 498 619.499 538 568.499 C578 517.499 598 447.332 598 357.999 C598 313.999 593 274.332 583 238.999 C573 203.666 558.333 173.833 539 149.5 C519.667 125.167 495.667 106.334 467 93.001 C438.333 79.668 406 73.001 370 73.001 C300 73.001 244.167 98.668 202.5 150.001 C160.833 201.334 140 270.666 140 357.999 L140 357.999 Z M311 931 L211 931 L342 766 L414 766 L311 931 Z " />
<glyph glyph-name="Oacute" unicode="&#xd3;" horiz-adv-x="737" d="M342 766 L414 766 L545 931 L446 931 L342 766 Z M50 358 C50 247.333 79.333 158.666 138 91.999 C196.667 25.332 274 -8.00098 370 -8.00098 C467.333 -8.00098 544.833 25.166 602.5 91.499 C660.167 157.832 689 246.665 689 357.998 C689 470.665 660.667 559.832 604 625.499 C547.333 691.166 469 723.999 369 723.999 C271.667 723.999 194.167 690.999 136.5 624.999 C78.833 558.999 50 470 50 358 L50 358 Z M140 357.999 C140 417.332 149 468.499 167 511.499 C185 554.499 211.333 587.499 246 610.499 C280.667 633.499 321.667 644.999 369 644.999 C441.667 644.999 498 619.499 538 568.499 C578 517.499 598 447.332 598 357.999 C598 313.999 593 274.332 583 238.999 C573 203.666 558.333 173.833 539 149.5 C519.667 125.167 495.667 106.334 467 93.001 C438.333 79.668 406 73.001 370 73.001 C300 73.001 244.167 98.668 202.5 150.001 C160.833 201.334 140 270.666 140 357.999 L140 357.999 Z " />
<glyph glyph-name="Ocircumflex" unicode="&#xd4;" horiz-adv-x="737" d="M140 358 C140 417.333 149 468.5 167 511.5 C185 554.5 211.333 587.5 246 610.5 C280.667 633.5 321.667 645 369 645 C441.667 645 498 619.5 538 568.5 C578 517.5 598 447.333 598 358 C598 314 593 274.333 583 239 C573 203.667 558.333 173.834 539 149.501 C519.667 125.168 495.667 106.335 467 93.002 C438.333 79.6689 406 73.002 370 73.002 C300 73.002 244.167 98.6689 202.5 150.002 C160.833 201.335 140 270.667 140 358 L140 358 Z M50 358.001 C50 247.334 79.333 158.667 138 92 C196.667 25.333 274 -8 370 -8 C467.333 -8 544.833 25.167 602.5 91.5 C660.167 157.833 689 246.666 689 357.999 C689 470.666 660.667 559.833 604 625.5 C547.333 691.167 469 724 369 724 C271.667 724 194.167 691 136.5 625 C78.833 559 50 470.001 50 358.001 L50 358.001 Z M337 931 L203 766 L287 766 L377 878 L467 766 L551 766 L416 931 L337 931 Z " />
<glyph glyph-name="Otilde" unicode="&#xd5;" horiz-adv-x="737" d="M50 358 C50 247.333 79.333 158.666 138 91.999 C196.667 25.332 274 -8.00098 370 -8.00098 C467.333 -8.00098 544.833 25.166 602.5 91.499 C660.167 157.832 689 246.665 689 357.998 C689 470.665 660.667 559.832 604 625.499 C547.333 691.166 469 723.999 369 723.999 C271.667 723.999 194.167 690.999 136.5 624.999 C78.833 558.999 50 470 50 358 L50 358 Z M140 357.999 C140 417.332 149 468.499 167 511.499 C185 554.499 211.333 587.499 246 610.499 C280.667 633.499 321.667 644.999 369 644.999 C441.667 644.999 498 619.499 538 568.499 C578 517.499 598 447.332 598 357.999 C598 313.999 593 274.332 583 238.999 C573 203.666 558.333 173.833 539 149.5 C519.667 125.167 495.667 106.334 467 93.001 C438.333 79.668 406 73.001 370 73.001 C300 73.001 244.167 98.668 202.5 150.001 C160.833 201.334 140 270.666 140 357.999 L140 357.999 Z M497 908 C484.333 878 465.666 863 440.999 863 C428.332 863 406.832 870.667 376.499 886 C346.166 901.333 320.666 909 299.999 909 C284.666 909 269.833 905.5 255.5 898.5 C241.167 891.5 228.667 882.5 218 871.5 C207.333 860.5 199 848 193 834 L238 795 C256.667 829 280.667 846 310 846 C321.333 846 342 838.167 372 822.5 C402 806.833 426.333 799 445 799 C467 799 487.167 805.333 505.5 818 C523.833 830.667 538.666 848.667 549.999 872 L497 908 Z " />
<glyph glyph-name="Odieresis" unicode="&#xd6;" horiz-adv-x="737" d="M213 850 C213 839.333 215.333 830 220 822 C224.667 814 231.167 807.5 239.5 802.5 C247.833 797.5 257.333 795 268 795 C283.333 795 296 800.167 306 810.5 C316 820.833 321 833.833 321 849.5 C321 865.167 316 878.167 306 888.5 C296 898.833 283.333 904 268 904 C252 904 238.833 898.833 228.5 888.5 C218.167 878.167 213 865.333 213 850 L213 850 Z M426 849.501 C426 833.834 431.167 820.834 441.5 810.501 C451.833 800.168 464.666 795.001 479.999 795.001 C495.999 795.001 509.166 800.168 519.499 810.501 C529.832 820.834 534.999 834.001 534.999 850.001 C534.999 857.334 533.499 864.334 530.499 871.001 C527.499 877.668 523.666 883.501 518.999 888.501 C514.332 893.501 508.665 897.334 501.998 900.001 C495.331 902.668 487.998 904.001 479.998 904.001 C464.665 904.001 451.832 898.834 441.499 888.501 C431.166 878.168 426 865.168 426 849.501 L426 849.501 Z M49.999 358.001 C49.999 247.334 79.332 158.667 137.999 92 C196.666 25.333 273.999 -8 369.999 -8 C467.332 -8 544.832 25.167 602.499 91.5 C660.166 157.833 688.999 246.666 688.999 357.999 C688.999 470.666 660.666 559.833 603.999 625.5 C547.332 691.167 468.999 724 368.999 724 C271.666 724 194.166 691 136.499 625 C78.832 559 49.999 470.001 49.999 358.001 L49.999 358.001 Z M139.999 358 C139.999 417.333 148.999 468.5 166.999 511.5 C184.999 554.5 211.332 587.5 245.999 610.5 C280.666 633.5 321.666 645 368.999 645 C441.666 645 497.999 619.5 537.999 568.5 C577.999 517.5 597.999 447.333 597.999 358 C597.999 314 592.999 274.333 582.999 239 C572.999 203.667 558.332 173.834 538.999 149.501 C519.666 125.168 495.666 106.335 466.999 93.002 C438.332 79.6689 405.999 73.002 369.999 73.002 C299.999 73.002 244.166 98.6689 202.499 150.002 C160.832 201.335 139.999 270.667 139.999 358 L139.999 358 Z " />
<glyph glyph-name="multiply" unicode="&#xd7;" horiz-adv-x="517" d="M454 501 L401 555 L259 413 L116 554 L62 501 L205 359 L67 222 L121 168 L259 306 L398 168 L451 221 L312 359 L454 501 Z " />
<glyph glyph-name="Oslash" unicode="&#xd8;" horiz-adv-x="711" d="M548 546 C577.333 498 592 435.333 592 358 C592 268.667 572 198.5 532 147.5 C492 96.5 436 71 364 71 C310.667 71 265.334 86 228.001 116 L548 546 Z M178.001 172 C147.334 221.333 132.001 283.333 132.001 358 C132.001 447.333 152.334 517.666 193.001 568.999 C233.668 620.332 290.001 645.999 362.001 645.999 C416.668 645.999 462.335 631.666 499.002 602.999 L178.001 172 Z M683.002 723.999 L589.002 723.999 L548.002 669.999 C498.002 705.999 436.002 723.999 362.002 723.999 C264.669 723.999 187.169 690.999 129.502 624.999 C71.835 558.999 43.002 469.999 43.002 357.999 C43.002 252.666 70.335 166.333 125.002 99 L43.002 -9 L134.002 -9 L177.002 48 C228.335 10.667 290.668 -8 364.001 -8 C460.668 -8 537.835 25.167 595.502 91.5 C653.169 157.833 682.002 246.666 682.002 357.999 C682.002 466.666 656.002 553.333 604.002 618 L683.002 723.999 Z " />
<glyph glyph-name="Ugrave" unicode="&#xd9;" horiz-adv-x="679" d="M515 268 C515 137.333 456.333 72 339 72 C286.333 72 244.333 87.333 213 118 C181.667 148.667 166 197 166 263 L166 711 L80 711 L80 262 C80 174 102.833 107 148.5 61 C194.167 15 257.667 -8 339 -8 C421.667 -8 485.834 15.5 531.501 62.5 C577.168 109.5 600.001 178.667 600.001 270 L600.001 711 L515.001 711 L515 268 Z M276.001 931 L176.001 931 L307.001 766 L380.001 766 L276.001 931 Z " />
<glyph glyph-name="Uacute" unicode="&#xda;" horiz-adv-x="679" d="M316 766 L389 766 L520 931 L421 931 L316 766 Z M515 268 C515 137.333 456.333 72 339 72 C286.333 72 244.333 87.333 213 118 C181.667 148.667 166 197 166 263 L166 711 L80 711 L80 262 C80 174 102.833 107 148.5 61 C194.167 15 257.667 -8 339 -8 C421.667 -8 485.834 15.5 531.501 62.5 C577.168 109.5 600.001 178.667 600.001 270 L600.001 711 L515.001 711 L515 268 Z " />
<glyph glyph-name="Ucircumflex" unicode="&#xdb;" horiz-adv-x="679" d="M515 268 C515 137.333 456.333 72 339 72 C286.333 72 244.333 87.333 213 118 C181.667 148.667 166 197 166 263 L166 711 L80 711 L80 262 C80 174 102.833 107 148.5 61 C194.167 15 257.667 -8 339 -8 C421.667 -8 485.834 15.5 531.501 62.5 C577.168 109.5 600.001 178.667 600.001 270 L600.001 711 L515.001 711 L515 268 Z M302.001 931 L168.001 766 L252.001 766 L342.001 878 L432.001 766 L516.001 766 L382.001 931 L302.001 931 Z " />
<glyph glyph-name="Udieresis" unicode="&#xdc;" horiz-adv-x="679" d="M180 850 C180 839.333 182.333 830 187 822 C191.667 814 198.167 807.5 206.5 802.5 C214.833 797.5 224.333 795 235 795 C250.333 795 263.166 800.333 273.499 811 C283.832 821.667 288.999 834.667 288.999 850 C288.999 865.333 283.832 878.166 273.499 888.499 C263.166 898.832 250.333 903.999 235 903.999 C219 903.999 205.833 898.832 195.5 888.499 C185.167 878.166 180 865.333 180 850 L180 850 Z M393 849.5 C393 833.833 398.167 820.833 408.5 810.5 C418.833 800.167 431.666 795 446.999 795 C462.999 795 476.166 800.167 486.499 810.5 C496.832 820.833 501.999 833.833 501.999 849.5 C501.999 865.167 496.832 878.167 486.499 888.5 C476.166 898.833 462.999 904 446.999 904 C431.666 904 418.833 898.833 408.5 888.5 C398.167 878.167 393 865.167 393 849.5 L393 849.5 Z M515 268 C515 137.333 456.333 72 339 72 C286.333 72 244.333 87.333 213 118 C181.667 148.667 166 197 166 263 L166 711 L80 711 L80 262 C80 174 102.833 107 148.5 61 C194.167 15 257.667 -8 339 -8 C421.667 -8 485.834 15.5 531.501 62.5 C577.168 109.5 600.001 178.667 600.001 270 L600.001 711 L515.001 711 L515 268 Z " />
<glyph glyph-name="Yacute" unicode="&#xdd;" horiz-adv-x="625" d="M497 930 L399 930 L295 765 L367 765 L497 930 Z M598 711 L499 711 L445 607 C362.333 448.333 317.666 360 310.999 342 L308.999 346 C308.332 348.667 305.332 355.667 299.999 367 C294.666 378.333 287.833 392.833 279.5 410.5 C271.167 428.167 258.334 454.167 241.001 488.5 C223.668 522.833 203.335 562.333 180.002 607 L127.002 711 L28.002 711 L269.002 264 L269.002 0 L354.002 0 L354.002 265 L598 711 Z " />
<glyph glyph-name="Thorn" unicode="&#xde;" horiz-adv-x="564" d="M167 204 L167 508 L263 508 C322.333 508 366.5 493.667 395.5 465 C424.5 436.333 439 397.666 439 348.999 C439 306.332 424.833 271.499 396.5 244.499 C368.167 217.499 326.334 203.999 271.001 203.999 L167 204 Z M167.001 579.999 L167.001 710.999 L81.001 710.999 L81.001 -0.000976562 L167.001 -0.000976562 L167.001 130.999 L268.001 130.999 C348.668 130.999 411.668 151.499 457.001 192.499 C502.334 233.499 525.001 286.332 525.001 350.999 C525.001 419.666 502.168 474.999 456.501 516.999 C410.834 558.999 345.334 579.999 260.001 579.999 L167.001 579.999 Z " />
<glyph glyph-name="germandbls" unicode="&#xdf;" horiz-adv-x="569" d="M272 6 C294 -2.66699 324.333 -7 363 -7 C418.333 -7 461.666 7 492.999 35 C524.332 63 539.999 99.333 539.999 144 C539.999 169.333 534.832 192.666 524.499 213.999 C514.166 235.332 501.499 252.832 486.499 266.499 C471.499 280.166 456.666 292.833 441.999 304.5 C427.332 316.167 414.665 328.167 403.998 340.5 C393.331 352.833 387.998 365.333 387.998 378 C387.998 389.333 392.331 401.666 400.998 414.999 C409.665 428.332 418.998 440.499 428.998 451.499 C438.998 462.499 448.331 478.166 456.998 498.499 C465.665 518.832 469.998 540.999 469.998 564.999 C469.998 610.999 452.831 649.666 418.498 680.999 C384.165 712.332 338.998 727.999 282.998 727.999 C220.998 727.999 171.665 710.832 134.998 676.499 C98.3311 642.166 79.998 590.999 79.998 522.999 L79.998 -0.000976562 L163.998 -0.000976562 L163.998 524.999 C163.998 608.999 202.998 650.999 280.998 650.999 C312.331 650.999 337.498 642.999 356.498 626.999 C375.498 610.999 384.998 589.666 384.998 562.999 C384.998 544.999 380.665 527.499 371.998 510.499 C363.331 493.499 353.498 479.499 342.498 468.499 C331.498 457.499 321.665 443.332 312.998 425.999 C304.331 408.666 299.998 390.333 299.998 371 C299.998 350.333 305.331 331.166 315.998 313.499 C326.665 295.832 339.832 280.665 355.499 267.998 C371.166 255.331 386.666 242.998 401.999 230.998 C417.332 218.998 430.332 205.331 440.999 189.998 C451.666 174.665 456.999 157.998 456.999 139.998 C456.999 125.331 453.166 112.331 445.499 100.998 C437.832 89.665 426.665 80.832 411.998 74.499 C397.331 68.166 380.664 64.999 361.997 64.999 C330.664 64.999 300.664 72.332 271.997 86.999 L272 6 Z " />
<glyph glyph-name="agrave" unicode="&#xe0;" horiz-adv-x="518" d="M307 590 L204 755 L103 755 L234 590 L307 590 Z M365 247 L365 178 C365 156.667 360 137.334 350 120.001 C340 102.668 325.5 89.001 306.5 79.001 C287.5 69.001 265.333 64.001 240 64.001 C206 64.001 180.333 72.334 163 89.001 C145.667 105.668 137 127.335 137 154.002 C137 181.335 148.167 203.668 170.5 221.001 C192.833 238.334 226.666 247.001 271.999 247.001 L365 247 Z M88.999 423.001 C108.999 437.001 132.666 448.168 159.999 456.501 C187.332 464.834 213.999 469.001 239.999 469.001 C284.666 469.001 316.666 458.168 335.999 436.501 C355.332 414.834 364.999 383.001 364.999 341.001 L364.999 313.001 L267.999 313.001 C200.666 313.001 147.333 298.668 108 270.001 C68.667 241.334 49 201.334 49 150.001 C49 105.334 64.5 68.334 95.5 39.001 C126.5 9.66797 166.667 -4.99902 216 -4.99902 C256 -4.99902 288.167 1.66797 312.5 15.001 C336.833 28.334 354.666 44.334 365.999 63.001 L365.999 0.000976562 L447.999 0.000976562 L447.999 339.001 C447.999 406.334 431.832 457.167 399.499 491.5 C367.166 525.833 316.333 543 247 543 C179.667 543 127 531 89 507 L88.999 423.001 Z " />
<glyph glyph-name="aacute" unicode="&#xe1;" horiz-adv-x="518" d="M439 755 L340 755 L235 590 L308 590 L439 755 Z M365 247 L365 178 C365 156.667 360 137.334 350 120.001 C340 102.668 325.5 89.001 306.5 79.001 C287.5 69.001 265.333 64.001 240 64.001 C206 64.001 180.333 72.334 163 89.001 C145.667 105.668 137 127.335 137 154.002 C137 181.335 148.167 203.668 170.5 221.001 C192.833 238.334 226.666 247.001 271.999 247.001 L365 247 Z M88.999 423.001 C108.999 437.001 132.666 448.168 159.999 456.501 C187.332 464.834 213.999 469.001 239.999 469.001 C284.666 469.001 316.666 458.168 335.999 436.501 C355.332 414.834 364.999 383.001 364.999 341.001 L364.999 313.001 L267.999 313.001 C200.666 313.001 147.333 298.668 108 270.001 C68.667 241.334 49 201.334 49 150.001 C49 105.334 64.5 68.334 95.5 39.001 C126.5 9.66797 166.667 -4.99902 216 -4.99902 C256 -4.99902 288.167 1.66797 312.5 15.001 C336.833 28.334 354.666 44.334 365.999 63.001 L365.999 0.000976562 L447.999 0.000976562 L447.999 339.001 C447.999 406.334 431.832 457.167 399.499 491.5 C367.166 525.833 316.333 543 247 543 C179.667 543 127 531 89 507 L88.999 423.001 Z " />
<glyph glyph-name="acircumflex" unicode="&#xe2;" horiz-adv-x="518" d="M268 700 L357 589 L442 589 L308 754 L228 754 L94 589 L178 589 L268 700 Z M365 247 L365 178 C365 156.667 360 137.334 350 120.001 C340 102.668 325.5 89.001 306.5 79.001 C287.5 69.001 265.333 64.001 240 64.001 C206 64.001 180.333 72.334 163 89.001 C145.667 105.668 137 127.335 137 154.002 C137 181.335 148.167 203.668 170.5 221.001 C192.833 238.334 226.666 247.001 271.999 247.001 L365 247 Z M88.999 423.001 C108.999 437.001 132.666 448.168 159.999 456.501 C187.332 464.834 213.999 469.001 239.999 469.001 C284.666 469.001 316.666 458.168 335.999 436.501 C355.332 414.834 364.999 383.001 364.999 341.001 L364.999 313.001 L267.999 313.001 C200.666 313.001 147.333 298.668 108 270.001 C68.667 241.334 49 201.334 49 150.001 C49 105.334 64.5 68.334 95.5 39.001 C126.5 9.66797 166.667 -4.99902 216 -4.99902 C256 -4.99902 288.167 1.66797 312.5 15.001 C336.833 28.334 354.666 44.334 365.999 63.001 L365.999 0.000976562 L447.999 0.000976562 L447.999 339.001 C447.999 406.334 431.832 457.167 399.499 491.5 C367.166 525.833 316.333 543 247 543 C179.667 543 127 531 89 507 L88.999 423.001 Z " />
<glyph glyph-name="atilde" unicode="&#xe3;" horiz-adv-x="518" d="M390 731 C377.333 701 358.666 686 333.999 686 C321.332 686 299.665 693.667 268.998 709 C238.331 724.333 212.664 732 191.997 732 C169.33 732 148.33 724.833 128.997 710.5 C109.664 696.167 94.9971 678.334 84.9971 657.001 L130.997 618.001 C148.997 651.334 172.997 668.001 202.997 668.001 C214.33 668.001 234.997 660.334 264.997 645.001 C294.997 629.668 319.33 622.001 337.997 622.001 C359.997 622.001 379.997 628.334 397.997 641.001 C415.997 653.668 430.664 671.668 441.997 695.001 L390 731 Z M364.997 247.001 L364.997 178.001 C364.997 156.668 359.997 137.335 349.997 120.002 C339.997 102.669 325.497 89.002 306.497 79.002 C287.497 69.002 265.33 64.002 239.997 64.002 C205.997 64.002 180.33 72.335 162.997 89.002 C145.664 105.669 136.997 127.336 136.997 154.003 C136.997 181.336 148.164 203.669 170.497 221.002 C192.83 238.335 226.663 247.002 271.996 247.002 L364.997 247.001 Z M88.9961 423.002 C108.996 437.002 132.663 448.169 159.996 456.502 C187.329 464.835 213.996 469.002 239.996 469.002 C284.663 469.002 316.663 458.169 335.996 436.502 C355.329 414.835 364.996 383.002 364.996 341.002 L364.996 313.002 L267.996 313.002 C200.663 313.002 147.33 298.669 107.997 270.002 C68.6641 241.335 48.9971 201.335 48.9971 150.002 C48.9971 105.335 64.4971 68.335 95.4971 39.002 C126.497 9.66895 166.664 -4.99805 215.997 -4.99805 C255.997 -4.99805 288.164 1.66895 312.497 15.002 C336.83 28.335 354.663 44.335 365.996 63.002 L365.996 0.00195312 L447.996 0.00195312 L447.996 339.002 C447.996 406.335 431.829 457.168 399.496 491.501 C367.163 525.834 316.33 543.001 246.997 543.001 C179.664 543.001 126.997 531.001 88.9971 507.001 L88.9961 423.002 Z " />
<glyph glyph-name="adieresis" unicode="&#xe4;" horiz-adv-x="518" d="M372 616 C388 616 401.167 621.167 411.5 631.5 C421.833 641.833 427 655 427 671 C427 681 424.667 690 420 698 C415.333 706 408.833 712.333 400.5 717 C392.167 721.667 382.667 724 372 724 C356.667 724 343.834 719 333.501 709 C323.168 699 318.001 686.167 318.001 670.5 C318.001 654.833 323.168 641.833 333.501 631.5 C343.834 621.167 356.667 616 372 616 L372 616 Z M161 616 C176.333 616 189 621.167 199 631.5 C209 641.833 214 654.833 214 670.5 C214 686.167 209 699 199 709 C189 719 176.333 724 161 724 C150.333 724 140.666 721.667 131.999 717 C123.332 712.333 116.665 706 111.998 698 C107.331 690 104.998 681 104.998 671 C104.998 655 110.331 641.833 120.998 631.5 C131.665 621.167 145 616 161 616 L161 616 Z M364.998 247 L364.998 178 C364.998 156.667 359.998 137.334 349.998 120.001 C339.998 102.668 325.498 89.001 306.498 79.001 C287.498 69.001 265.331 64.001 239.998 64.001 C205.998 64.001 180.331 72.334 162.998 89.001 C145.665 105.668 136.998 127.335 136.998 154.002 C136.998 181.335 148.165 203.668 170.498 221.001 C192.831 238.334 226.664 247.001 271.997 247.001 L364.998 247 Z M88.9971 423.001 C108.997 437.001 132.664 448.168 159.997 456.501 C187.33 464.834 213.997 469.001 239.997 469.001 C284.664 469.001 316.664 458.168 335.997 436.501 C355.33 414.834 364.997 383.001 364.997 341.001 L364.997 313.001 L267.997 313.001 C200.664 313.001 147.331 298.668 107.998 270.001 C68.665 241.334 48.998 201.334 48.998 150.001 C48.998 105.334 64.498 68.334 95.498 39.001 C126.498 9.66797 166.665 -4.99902 215.998 -4.99902 C255.998 -4.99902 288.165 1.66797 312.498 15.001 C336.831 28.334 354.664 44.334 365.997 63.001 L365.997 0.000976562 L447.997 0.000976562 L447.997 339.001 C447.997 406.334 431.83 457.167 399.497 491.5 C367.164 525.833 316.331 543 246.998 543 C179.665 543 126.998 531 88.998 507 L88.9971 423.001 Z " />
<glyph glyph-name="aring" unicode="&#xe5;" horiz-adv-x="518" d="M269 750 C279.667 750 289.334 747.5 298.001 742.5 C306.668 737.5 313.335 730.667 318.002 722 C322.669 713.333 325.002 703.666 325.002 692.999 C325.002 677.666 319.669 664.333 309.002 653 C298.335 641.667 285.002 636 269.002 636 C253.002 636 239.669 641.667 229.002 653 C218.335 664.333 213.002 677.666 213.002 692.999 C213.002 708.999 218.335 722.499 229.002 733.499 C239.669 744.499 253 750 269 750 L269 750 Z M269.002 579.999 C289.002 579.999 307.669 584.999 325.002 594.999 C342.335 604.999 356.002 618.666 366.002 635.999 C376.002 653.332 381.002 671.999 381.002 691.999 C381.002 723.332 370.002 749.832 348.002 771.499 C326.002 793.166 299.669 803.999 269.002 803.999 C238.335 803.999 212.168 793.166 190.501 771.499 C168.834 749.832 158.001 723.332 158.001 691.999 C158.001 661.332 168.834 634.999 190.501 612.999 C212.168 590.999 238.335 579.999 269.002 579.999 L269.002 579.999 Z M365.002 246.999 L365.002 177.999 C365.002 156.666 360.002 137.333 350.002 120 C340.002 102.667 325.502 89 306.502 79 C287.502 69 265.335 64 240.002 64 C206.002 64 180.335 72.333 163.002 89 C145.669 105.667 137.002 127.334 137.002 154.001 C137.002 181.334 148.169 203.667 170.502 221 C192.835 238.333 226.668 247 272.001 247 L365.002 246.999 Z M89.001 423 C109.001 437 132.668 448.167 160.001 456.5 C187.334 464.833 214.001 469 240.001 469 C284.668 469 316.668 458.167 336.001 436.5 C355.334 414.833 365.001 383 365.001 341 L365.001 313 L268.001 313 C200.668 313 147.335 298.667 108.002 270 C68.6689 241.333 49.002 201.333 49.002 150 C49.002 105.333 64.502 68.333 95.502 39 C126.502 9.66699 166.669 -5 216.002 -5 C256.002 -5 288.169 1.66699 312.502 15 C336.835 28.333 354.668 44.333 366.001 63 L366.001 0 L448.001 0 L448.001 339 C448.001 406.333 431.834 457.166 399.501 491.499 C367.168 525.832 316.335 542.999 247.002 542.999 C179.669 542.999 127.002 530.999 89.002 506.999 L89.001 423 Z " />
<glyph glyph-name="ae" unicode="&#xe6;" horiz-adv-x="863" d="M370 186 C370 150 358.167 121.333 334.5 100 C310.833 78.667 281.333 68 246 68 C212 68 186 75.5 168 90.5 C150 105.5 141 126 141 152 C141 182.667 153.833 205.834 179.5 221.501 C205.167 237.168 242.334 245.001 291.001 245.001 L370.001 245.001 L370 186 Z M740.001 302.001 L452.001 302.001 C458.001 357.334 475.334 399.001 504.001 427.001 C532.668 455.001 567.001 469.001 607.001 469.001 C626.334 469.001 644.001 465.834 660.001 459.501 C676.001 453.168 689.834 443.835 701.501 431.502 C713.168 419.169 722.335 403.836 729.002 385.503 C735.669 367.17 739.336 346.003 740.003 322.003 L740.001 302.001 Z M817.003 232.003 C820.336 250.003 822.003 269.336 822.003 290.003 C822.003 371.336 803.503 433.503 766.503 476.503 C729.503 519.503 676.67 541.003 608.003 541.003 C582.003 541.003 557.503 537.336 534.503 530.003 C511.503 522.67 490.503 512.17 471.503 498.503 C452.503 484.836 436.336 468.003 423.003 448.003 C397.003 511.336 339.003 543.003 249.003 543.003 C220.336 543.003 191.836 539.503 163.503 532.503 C135.17 525.503 112.003 516.336 94.0029 505.003 L94.0029 424.003 C107.336 433.336 122.503 441.336 139.503 448.003 C156.503 454.67 174.336 459.837 193.003 463.504 C211.67 467.171 229.337 469.004 246.004 469.004 C291.337 469.004 323.337 458.337 342.004 437.004 C360.671 415.671 370.004 383.671 370.004 341.004 L370.004 314.004 L275.004 314.004 C207.004 314.004 153.337 299.504 114.004 270.504 C74.6709 241.504 55.0039 201.004 55.0039 149.004 C55.0039 101.671 70.6709 64.1709 102.004 36.5039 C133.337 8.83691 175.004 -4.99609 227.004 -4.99609 C274.337 -4.99609 314.67 5.00391 348.003 25.0039 C381.336 45.0039 404.669 71.3369 418.002 104.004 C439.335 70.0039 469.335 43.3369 508.002 24.0039 C546.669 4.6709 589.336 -4.99609 636.003 -4.99609 C660.003 -4.99609 685.836 -1.99609 713.503 4.00391 C741.17 10.0039 764.67 18.0039 784.003 28.0039 L784.003 105.004 C749.336 81.0039 702.336 69.0039 643.003 69.0039 C592.336 69.0039 549.669 83.0039 515.002 111.004 C480.335 139.004 459.668 179.337 453.001 232.004 L817.003 232.003 Z " />
<glyph glyph-name="ccedilla" unicode="&#xe7;" horiz-adv-x="496" d="M132 265 C132 322.333 150.167 370.666 186.5 409.999 C222.833 449.332 271.333 468.999 332 468.999 C349.333 468.999 368.666 466.166 389.999 460.499 C411.332 454.832 429.665 446.665 444.998 435.998 L444.998 514.998 C410.998 534.331 369.998 543.998 321.998 543.998 C293.331 543.998 265.998 540.331 239.998 532.998 C213.998 525.665 190.998 515.665 170.998 502.998 C150.998 490.331 132.998 475.331 116.998 457.998 C100.998 440.665 87.8311 421.665 77.498 400.998 C67.165 380.331 59.165 358.498 53.498 335.498 C47.8311 312.498 44.998 289.331 44.998 265.998 C44.998 215.998 55.498 170.165 76.498 128.498 C97.498 86.8311 129.165 53.1641 171.498 27.4971 C213.831 1.83008 263.331 -11.0029 319.998 -11.0029 C341.331 -11.0029 363.831 -8.33594 387.498 -3.00293 C411.165 2.33008 430.332 9.66309 444.999 18.9961 L444.999 97.9961 C408.332 74.6631 370.665 62.9961 331.998 62.9961 C268.665 62.9961 219.665 82.3291 184.998 120.996 C150.331 159.663 132.667 207.667 132 265 L132 265 Z M356.997 -129.004 C356.997 -96.3369 350.997 -71.3369 338.997 -54.0039 L263.997 -54.0039 C279.997 -82.0039 287.997 -107.337 287.997 -130.004 C287.997 -144.671 284.664 -157.338 277.997 -168.005 C271.33 -178.672 261.497 -187.172 248.497 -193.505 C235.497 -199.838 219.33 -203.671 199.997 -205.004 L199.997 -266.004 C250.664 -264.671 289.497 -251.004 316.497 -225.004 C343.497 -199.004 356.997 -167.004 356.997 -129.004 L356.997 -129.004 Z " />
<glyph glyph-name="egrave" unicode="&#xe8;" horiz-adv-x="550" d="M336 590 L232 755 L132 755 L263 590 L336 590 Z M418 302 L131 302 C135.667 355.333 152 396.5 180 425.5 C208 454.5 242 469 282 469 C324 469 357.167 455.667 381.5 429 C405.833 402.333 418 366.666 418 321.999 L418 302 Z M468 104.999 C433.333 80.999 385 68.999 323 68.999 C269 68.999 225 82.999 191 110.999 C157 138.999 137 179.332 131 231.999 L495 231.999 C499 249.999 501 270.999 501 294.999 C501 373.666 481.167 434.333 441.5 477 C401.833 519.667 348.666 541 281.999 541 C212.666 541 155.833 516.333 111.5 467 C67.167 417.667 45 350.667 45 266 C45 184.667 69.667 119.167 119 69.5 C168.333 19.833 233.666 -5 314.999 -5 C330.999 -5 348.166 -3.66699 366.499 -1 C384.832 1.66699 402.999 5.5 420.999 10.5 C438.999 15.5 454.666 21.333 467.999 28 L468 104.999 Z " />
<glyph glyph-name="eacute" unicode="&#xe9;" horiz-adv-x="550" d="M469 755 L369 755 L265 590 L338 590 L469 755 Z M418 302 L131 302 C135.667 355.333 152 396.5 180 425.5 C208 454.5 242 469 282 469 C324 469 357.167 455.667 381.5 429 C405.833 402.333 418 366.666 418 321.999 L418 302 Z M468 104.999 C433.333 80.999 385 68.999 323 68.999 C269 68.999 225 82.999 191 110.999 C157 138.999 137 179.332 131 231.999 L495 231.999 C499 249.999 501 270.999 501 294.999 C501 373.666 481.167 434.333 441.5 477 C401.833 519.667 348.666 541 281.999 541 C212.666 541 155.833 516.333 111.5 467 C67.167 417.667 45 350.667 45 266 C45 184.667 69.667 119.167 119 69.5 C168.333 19.833 233.666 -5 314.999 -5 C330.999 -5 348.166 -3.66699 366.499 -1 C384.832 1.66699 402.999 5.5 420.999 10.5 C438.999 15.5 454.666 21.333 467.999 28 L468 104.999 Z " />
<glyph glyph-name="ecircumflex" unicode="&#xea;" horiz-adv-x="550" d="M297 701 L386 590 L471 590 L337 755 L256 755 L123 590 L207 590 L297 701 Z M418 302 L131 302 C135.667 355.333 152 396.5 180 425.5 C208 454.5 242 469 282 469 C324 469 357.167 455.667 381.5 429 C405.833 402.333 418 366.666 418 321.999 L418 302 Z M468 104.999 C433.333 80.999 385 68.999 323 68.999 C269 68.999 225 82.999 191 110.999 C157 138.999 137 179.332 131 231.999 L495 231.999 C499 249.999 501 270.999 501 294.999 C501 373.666 481.167 434.333 441.5 477 C401.833 519.667 348.666 541 281.999 541 C212.666 541 155.833 516.333 111.5 467 C67.167 417.667 45 350.667 45 266 C45 184.667 69.667 119.167 119 69.5 C168.333 19.833 233.666 -5 314.999 -5 C330.999 -5 348.166 -3.66699 366.499 -1 C384.832 1.66699 402.999 5.5 420.999 10.5 C438.999 15.5 454.666 21.333 467.999 28 L468 104.999 Z " />
<glyph glyph-name="edieresis" unicode="&#xeb;" horiz-adv-x="550" d="M403 619 C418.333 619 431.166 624.167 441.499 634.5 C451.832 644.833 456.999 657.833 456.999 673.5 C456.999 689.167 451.832 702.167 441.499 712.5 C431.166 722.833 418.333 728 403 728 C387.667 728 374.834 722.833 364.501 712.5 C354.168 702.167 349.001 689.167 349.001 673.5 C349.001 657.833 354.168 644.833 364.501 634.5 C374.834 624.167 387.667 619 403 619 L403 619 Z M191 619 C206.333 619 219.166 624.167 229.499 634.5 C239.832 644.833 244.999 657.833 244.999 673.5 C244.999 689.167 239.832 702.167 229.499 712.5 C219.166 722.833 206.333 728 191 728 C180.333 728 170.833 725.667 162.5 721 C154.167 716.333 147.667 709.833 143 701.5 C138.333 693.167 136 683.834 136 673.501 C136 663.168 138.333 653.835 143 645.502 C147.667 637.169 154.167 630.669 162.5 626.002 C170.833 621.335 180.333 619 191 619 L191 619 Z M418 302.002 L131 302.002 C135.667 355.335 152 396.502 180 425.502 C208 454.502 242 469.002 282 469.002 C324 469.002 357.167 455.669 381.5 429.002 C405.833 402.335 418 366.668 418 322.001 L418 302.002 Z M468 105.001 C433.333 81.001 385 69.001 323 69.001 C269 69.001 225 83.001 191 111.001 C157 139.001 137 179.334 131 232.001 L495 232.001 C499 250.001 501 271.001 501 295.001 C501 373.668 481.167 434.335 441.5 477.002 C401.833 519.669 348.666 541.002 281.999 541.002 C212.666 541.002 155.833 516.335 111.5 467.002 C67.167 417.669 45 350.669 45 266.002 C45 184.669 69.667 119.169 119 69.502 C168.333 19.835 233.666 -4.99805 314.999 -4.99805 C330.999 -4.99805 348.166 -3.66504 366.499 -0.998047 C384.832 1.66895 402.999 5.50195 420.999 10.502 C438.999 15.502 454.666 21.335 467.999 28.002 L468 105.001 Z " />
<glyph glyph-name="igrave" unicode="&#xec;" horiz-adv-x="245" d="M81 0 L165 0 L165 535 L81 535 L81 0 Z M49 754 L-50 754 L80 589 L152 589 L49 754 Z " />
<glyph glyph-name="iacute" unicode="&#xed;" horiz-adv-x="245" d="M81 0 L165 0 L165 535 L81 535 L81 0 Z M93 590 L166 590 L297 755 L197 755 L93 590 Z " />
<glyph glyph-name="icircumflex" unicode="&#xee;" horiz-adv-x="245" d="M83 755 L-50 590 L34 590 L124 701 L213 590 L298 590 L164 755 L83 755 Z M81 0 L165 0 L165 535 L81 535 L81 0 Z " />
<glyph glyph-name="idieresis" unicode="&#xef;" horiz-adv-x="245" d="M81 0 L165 0 L165 535 L81 535 L81 0 Z M-38 674.5 C-38 658.833 -32.833 645.833 -22.5 635.5 C-12.167 625.167 0.666016 620 15.999 620 C31.999 620 45.166 625.167 55.499 635.5 C65.832 645.833 70.999 658.833 70.999 674.5 C70.999 690.167 65.832 703.167 55.499 713.5 C45.166 723.833 31.999 729 15.999 729 C0.666016 729 -12.167 723.833 -22.5 713.5 C-32.833 703.167 -38 690.167 -38 674.5 L-38 674.5 Z M175 675 C175 664.333 177.333 654.833 182 646.5 C186.667 638.167 193 631.667 201 627 C209 622.333 218.333 620 229 620 C244.333 620 257.166 625.167 267.499 635.5 C277.832 645.833 282.999 659 282.999 675 C282.999 685 280.666 694.167 275.999 702.5 C271.332 710.833 264.832 717.333 256.499 722 C248.166 726.667 238.999 729 228.999 729 C213.666 729 200.833 723.833 190.5 713.5 C180.167 703.167 175 690.333 175 675 L175 675 Z " />
<glyph glyph-name="eth" unicode="&#xf0;" horiz-adv-x="544" d="M265 68 C224.333 68 191.166 80.833 165.499 106.5 C139.832 132.167 126.999 167 126.999 211 C126.999 255.667 139.332 290.5 163.999 315.5 C188.666 340.5 220.333 353 259 353 C322.333 353 375.333 325.333 418 270 C416 200.667 400.667 149.667 372 117 C343.333 84.333 307.667 68 265 68 L265 68 Z M476.999 647 L476.999 711 L347.999 646 C322.666 672 296.333 693.667 269 711 L138 711 C191.333 682.333 237.666 648.333 276.999 609 L169.999 554 L169.999 489 L316.999 565 C367.666 502.333 398.999 433.333 410.999 358 C369.666 406.667 316.666 431 251.999 431 C193.999 431 144.166 411.5 102.499 372.5 C60.832 333.5 39.999 280.333 39.999 213 C39.999 151.667 60.666 99.334 101.999 56.001 C143.332 12.668 197.665 -8.99902 264.998 -8.99902 C336.331 -8.99902 392.664 15.834 433.997 65.501 C475.33 115.168 495.997 187.668 495.997 283.001 C495.997 400.334 459.664 506.001 386.997 600.001 L476.999 647 Z " />
<glyph glyph-name="ntilde" unicode="&#xf1;" horiz-adv-x="568" d="M422 731 C409.333 701 390.333 686 365 686 C352.333 686 330.833 693.667 300.5 709 C270.167 724.333 244.667 732 224 732 C201.333 732 180.333 724.833 161 710.5 C141.667 696.167 127 678.334 117 657.001 L163 618.001 C169 629.334 175.167 638.501 181.5 645.501 C187.833 652.501 195.333 658.001 204 662.001 C212.667 666.001 222.5 668.001 233.5 668.001 C244.5 668.001 265.167 660.334 295.5 645.001 C325.833 629.668 350.333 622.001 369 622.001 C391 622.001 411.167 628.334 429.5 641.001 C447.833 653.668 462.666 671.668 473.999 695.001 L422 731 Z M159.999 535.001 L76.999 535.001 L76.999 0.000976562 L159.999 0.000976562 L159.999 293.001 C159.999 347.668 174.332 390.501 202.999 421.501 C231.666 452.501 266.333 468.001 307 468.001 C339 468.001 365 457.501 385 436.501 C405 415.501 415 385.334 415 346.001 L415 0.000976562 L499 0.000976562 L499 368.001 C499 420.668 483.333 462.835 452 494.502 C420.667 526.169 379.334 542.002 328.001 542.002 C247.334 542.002 191.334 508.669 160.001 442.002 L159.999 535.001 Z " />
<glyph glyph-name="ograve" unicode="&#xf2;" horiz-adv-x="592" d="M295 -9 C373.667 -9 435.334 16.833 480.001 68.5 C524.668 120.167 547.001 186 547.001 266 C547.001 318 537.834 364.333 519.501 405 C501.168 445.667 472.668 478.667 434.001 504 C395.334 529.333 349.001 542 295.001 542 C221.001 542 160.834 515.5 114.501 462.5 C68.168 409.5 45.001 343.333 45.001 264 C45.001 185.333 67.334 120.166 112.001 68.499 C156.668 16.832 217.667 -9 295 -9 L295 -9 Z M295.001 468.999 C323.668 468.999 349.001 463.499 371.001 452.499 C393.001 441.499 410.334 426.332 423.001 406.999 C435.668 387.666 445.001 365.999 451.001 341.999 C457.001 317.999 460.001 292.332 460.001 264.999 C460.001 207.666 445.834 159.833 417.501 121.5 C389.168 83.167 348.335 64 295.002 64 C245.669 64 206.169 83.667 176.502 123 C146.835 162.333 132.002 209.666 132.002 264.999 C132.002 301.666 138.002 335.166 150.002 365.499 C162.002 395.832 180.669 420.665 206.002 439.998 C231.335 459.331 261.001 468.999 295.001 468.999 L295.001 468.999 Z M232.002 754.998 L132.002 754.998 L263.002 589.998 L336.002 589.998 L232.002 754.998 Z " />
<glyph glyph-name="oacute" unicode="&#xf3;" horiz-adv-x="592" d="M272 590 L345 590 L476 755 L377 755 L272 590 Z M295 -9 C373.667 -9 435.334 16.833 480.001 68.5 C524.668 120.167 547.001 186 547.001 266 C547.001 318 537.834 364.333 519.501 405 C501.168 445.667 472.668 478.667 434.001 504 C395.334 529.333 349.001 542 295.001 542 C221.001 542 160.834 515.5 114.501 462.5 C68.168 409.5 45.001 343.333 45.001 264 C45.001 185.333 67.334 120.166 112.001 68.499 C156.668 16.832 217.667 -9 295 -9 L295 -9 Z M295.001 468.999 C323.668 468.999 349.001 463.499 371.001 452.499 C393.001 441.499 410.334 426.332 423.001 406.999 C435.668 387.666 445.001 365.999 451.001 341.999 C457.001 317.999 460.001 292.332 460.001 264.999 C460.001 207.666 445.834 159.833 417.501 121.5 C389.168 83.167 348.335 64 295.002 64 C245.669 64 206.169 83.667 176.502 123 C146.835 162.333 132.002 209.666 132.002 264.999 C132.002 301.666 138.002 335.166 150.002 365.499 C162.002 395.832 180.669 420.665 206.002 439.998 C231.335 459.331 261.001 468.999 295.001 468.999 L295.001 468.999 Z " />
<glyph glyph-name="ocircumflex" unicode="&#xf4;" horiz-adv-x="592" d="M295 469 C323.667 469 349 463.5 371 452.5 C393 441.5 410.333 426.333 423 407 C435.667 387.667 445 366 451 342 C457 318 460 292.333 460 265 C460 207.667 445.833 159.834 417.5 121.501 C389.167 83.168 348.334 64.001 295.001 64.001 C245.668 64.001 206.168 83.668 176.501 123.001 C146.834 162.334 132.001 209.667 132.001 265 C132.001 301.667 138.001 335.167 150.001 365.5 C162.001 395.833 180.668 420.666 206.001 439.999 C231.334 459.332 261 469 295 469 L295 469 Z M295.001 -9.00098 C373.668 -9.00098 435.335 16.832 480.002 68.499 C524.669 120.166 547.002 185.999 547.002 265.999 C547.002 317.999 537.835 364.332 519.502 404.999 C501.169 445.666 472.669 478.666 434.002 503.999 C395.335 529.332 349.002 541.999 295.002 541.999 C221.002 541.999 160.835 515.499 114.502 462.499 C68.1689 409.499 45.002 343.332 45.002 263.999 C45.002 185.332 67.335 120.165 112.002 68.498 C156.669 16.8311 217.668 -9.00098 295.001 -9.00098 L295.001 -9.00098 Z M260.002 753.998 L126.002 588.998 L210.002 588.998 L300.002 699.998 L389.002 588.998 L474.002 588.998 L340.002 753.998 L260.002 753.998 Z " />
<glyph glyph-name="otilde" unicode="&#xf5;" horiz-adv-x="592" d="M295 -9 C373.667 -9 435.334 16.833 480.001 68.5 C524.668 120.167 547.001 186 547.001 266 C547.001 318 537.834 364.333 519.501 405 C501.168 445.667 472.668 478.667 434.001 504 C395.334 529.333 349.001 542 295.001 542 C221.001 542 160.834 515.5 114.501 462.5 C68.168 409.5 45.001 343.333 45.001 264 C45.001 185.333 67.334 120.166 112.001 68.499 C156.668 16.832 217.667 -9 295 -9 L295 -9 Z M295.001 468.999 C323.668 468.999 349.001 463.499 371.001 452.499 C393.001 441.499 410.334 426.332 423.001 406.999 C435.668 387.666 445.001 365.999 451.001 341.999 C457.001 317.999 460.001 292.332 460.001 264.999 C460.001 207.666 445.834 159.833 417.501 121.5 C389.168 83.167 348.335 64 295.002 64 C245.669 64 206.169 83.667 176.502 123 C146.835 162.333 132.002 209.666 132.002 264.999 C132.002 301.666 138.002 335.166 150.002 365.499 C162.002 395.832 180.669 420.665 206.002 439.998 C231.335 459.331 261.001 468.999 295.001 468.999 L295.001 468.999 Z M426.002 730.998 C413.335 700.998 394.335 685.998 369.002 685.998 C356.335 685.998 334.835 693.665 304.502 708.998 C274.169 724.331 248.669 731.998 228.002 731.998 C205.335 731.998 184.335 724.831 165.002 710.498 C145.669 696.165 131.336 678.332 122.003 656.999 L167.003 617.999 C176.336 635.332 186.503 647.999 197.503 655.999 C208.503 663.999 222.003 667.999 238.003 667.999 C249.336 667.999 270.003 660.332 300.003 644.999 C330.003 629.666 354.336 621.999 373.003 621.999 C395.003 621.999 415.17 628.332 433.503 640.999 C451.836 653.666 466.669 671.666 478.002 694.999 L426.002 730.998 Z " />
<glyph glyph-name="odieresis" unicode="&#xf6;" horiz-adv-x="592" d="M144 672 C144 656 149.333 642.833 160 632.5 C170.667 622.167 184 617 200 617 C215.333 617 228 622.167 238 632.5 C248 642.833 253 655.833 253 671.5 C253 687.167 248 700.167 238 710.5 C228 720.833 215.333 726 200 726 C192 726 184.5 724.667 177.5 722 C170.5 719.333 164.667 715.5 160 710.5 C155.333 705.5 151.5 699.667 148.5 693 C145.5 686.333 144 679.333 144 672 L144 672 Z M357 672 C357 656 362.167 642.833 372.5 632.5 C382.833 622.167 395.666 617 410.999 617 C426.999 617 440.332 622.167 450.999 632.5 C461.666 642.833 466.999 655.833 466.999 671.5 C466.999 687.167 461.666 700.167 450.999 710.5 C440.332 720.833 426.999 726 410.999 726 C400.999 726 391.832 723.667 383.499 719 C375.166 714.333 368.666 707.833 363.999 699.5 C359.332 691.167 357 682 357 672 L357 672 Z M294.999 -9 C373.666 -9 435.333 16.833 480 68.5 C524.667 120.167 547 186 547 266 C547 318 537.833 364.333 519.5 405 C501.167 445.667 472.667 478.667 434 504 C395.333 529.333 349 542 295 542 C221 542 160.833 515.5 114.5 462.5 C68.167 409.5 45 343.333 45 264 C45 185.333 67.333 120.166 112 68.499 C156.667 16.832 217.666 -9 294.999 -9 L294.999 -9 Z M295 468.999 C323.667 468.999 349 463.499 371 452.499 C393 441.499 410.333 426.332 423 406.999 C435.667 387.666 445 365.999 451 341.999 C457 317.999 460 292.332 460 264.999 C460 207.666 445.833 159.833 417.5 121.5 C389.167 83.167 348.334 64 295.001 64 C245.668 64 206.168 83.667 176.501 123 C146.834 162.333 132.001 209.666 132.001 264.999 C132.001 301.666 138.001 335.166 150.001 365.499 C162.001 395.832 180.668 420.665 206.001 439.998 C231.334 459.331 261 468.999 295 468.999 L295 468.999 Z " />
<glyph glyph-name="divide" unicode="&#xf7;" horiz-adv-x="582" d="M235 546 C235 531.333 240.5 518.5 251.5 507.5 C262.5 496.5 275.667 491 291 491 C306.333 491 319.333 496.333 330 507 C340.667 517.667 346 530.667 346 546 C346 561.333 340.667 574.666 330 585.999 C319.333 597.332 306.333 602.999 291 602.999 C275.667 602.999 262.5 597.332 251.5 585.999 C240.5 574.666 235 561.333 235 546 L235 546 Z M60 320 L524 320 L524 397 L60 397 L60 320 Z M235 171 C235 155.667 240.5 142.5 251.5 131.5 C262.5 120.5 275.667 115 291 115 C306.333 115 319.333 120.5 330 131.5 C340.667 142.5 346 155.667 346 171 C346 185.667 340.667 198.5 330 209.5 C319.333 220.5 306.333 226 291 226 C275.667 226 262.5 220.5 251.5 209.5 C240.5 198.5 235 185.667 235 171 L235 171 Z " />
<glyph glyph-name="oslash" unicode="&#xf8;" horiz-adv-x="593" d="M451 396 C471 358 481 314.333 481 265 C481 205.667 466.167 156.334 436.5 117.001 C406.833 77.668 364.333 58.001 309 58.001 C277 58.001 246.667 67.668 218 87.001 L451 396 Z M172 140.001 C150.667 176.001 140 217.668 140 265.001 C140 323.668 154.667 373.335 184 414.002 C213.333 454.669 254.666 475.002 307.999 475.002 C343.999 475.002 375.999 466.002 403.999 448.002 L172 140.001 Z M561.999 542.002 L474.999 542.002 L446.999 505.002 C408.332 529.669 362.332 542.002 308.999 542.002 C234.999 542.002 174.832 515.335 128.499 462.002 C82.166 408.669 58.999 342.669 58.999 264.002 C58.999 188.002 79.999 124.669 121.999 74.002 L58.999 -8.99805 L144.999 -8.99805 L173.999 28.002 C212.666 3.33496 257.666 -8.99805 308.999 -8.99805 C388.332 -8.99805 450.332 16.835 494.999 68.502 C539.666 120.169 561.999 186.002 561.999 266.002 C561.999 343.335 541.332 407.668 499.999 459.001 L561.999 542.002 Z " />
<glyph glyph-name="ugrave" unicode="&#xf9;" horiz-adv-x="568" d="M320 589 L217 754 L117 754 L248 589 L320 589 Z M409 535 L409 240 C409 187.333 395.833 145.666 369.5 114.999 C343.167 84.332 308 68.999 264 68.999 C230 68.999 203.167 79.166 183.5 99.499 C163.833 119.832 154 148.999 154 186.999 L154 534.999 L71 534.999 L71 166.999 C71 114.332 86.333 72.332 117 40.999 C147.667 9.66602 189 -6.00098 241 -6.00098 C324.333 -6.00098 380.333 26.999 409 92.999 L409 -0.000976562 L492 -0.000976562 L492 534.999 L409 535 Z " />
<glyph glyph-name="uacute" unicode="&#xfa;" horiz-adv-x="568" d="M456 755 L357 755 L253 590 L325 590 L456 755 Z M409 535 L409 240 C409 187.333 395.833 145.666 369.5 114.999 C343.167 84.332 308 68.999 264 68.999 C230 68.999 203.167 79.166 183.5 99.499 C163.833 119.832 154 148.999 154 186.999 L154 534.999 L71 534.999 L71 166.999 C71 114.332 86.333 72.332 117 40.999 C147.667 9.66602 189 -6.00098 241 -6.00098 C324.333 -6.00098 380.333 26.999 409 92.999 L409 -0.000976562 L492 -0.000976562 L492 534.999 L409 535 Z " />
<glyph glyph-name="ucircumflex" unicode="&#xfb;" horiz-adv-x="568" d="M283 701 L373 590 L457 590 L323 755 L244 755 L109 590 L194 590 L283 701 Z M409 535 L409 240 C409 187.333 395.833 145.666 369.5 114.999 C343.167 84.332 308 68.999 264 68.999 C230 68.999 203.167 79.166 183.5 99.499 C163.833 119.832 154 148.999 154 186.999 L154 534.999 L71 534.999 L71 166.999 C71 114.332 86.333 72.332 117 40.999 C147.667 9.66602 189 -6.00098 241 -6.00098 C324.333 -6.00098 380.333 26.999 409 92.999 L409 -0.000976562 L492 -0.000976562 L492 534.999 L409 535 Z " />
<glyph glyph-name="udieresis" unicode="&#xfc;" horiz-adv-x="568" d="M391 617 C407 617 420.167 622.167 430.5 632.5 C440.833 642.833 446 655.833 446 671.5 C446 687.167 440.833 700.167 430.5 710.5 C420.167 720.833 407 726 391 726 C383.667 726 376.667 724.667 370 722 C363.333 719.333 357.666 715.5 352.999 710.5 C348.332 705.5 344.665 699.667 341.998 693 C339.331 686.333 337.998 679.333 337.998 672 C337.998 656 342.998 642.833 352.998 632.5 C362.998 622.167 375.667 617 391 617 L391 617 Z M178.998 617 C194.331 617 207.164 622.167 217.497 632.5 C227.83 642.833 232.997 656 232.997 672 C232.997 682 230.664 691.167 225.997 699.5 C221.33 707.833 214.83 714.333 206.497 719 C198.164 723.667 188.997 726 178.997 726 C162.997 726 149.997 720.833 139.997 710.5 C129.997 700.167 124.997 687.167 124.997 671.5 C124.997 655.833 129.997 642.833 139.997 632.5 C149.997 622.167 162.998 617 178.998 617 L178.998 617 Z M408.997 535 L408.997 240 C408.997 187.333 395.83 145.666 369.497 114.999 C343.164 84.332 307.997 68.999 263.997 68.999 C229.997 68.999 203.164 79.166 183.497 99.499 C163.83 119.832 153.997 148.999 153.997 186.999 L153.997 534.999 L70.9971 534.999 L70.9971 166.999 C70.9971 114.332 86.3301 72.332 116.997 40.999 C147.664 9.66602 188.997 -6.00098 240.997 -6.00098 C324.33 -6.00098 380.33 26.999 408.997 92.999 L408.997 -0.000976562 L491.997 -0.000976562 L491.997 534.999 L408.997 535 Z " />
<glyph glyph-name="yacute" unicode="&#xfd;" horiz-adv-x="519" d="M234 590 L307 590 L438 755 L339 755 L234 590 Z M225 13 C195 -67 144.667 -107 74 -107 C60 -107 48 -105.667 38 -103 L38 -178 C49.333 -181.333 64 -183 82 -183 C130.667 -183 174 -168.5 212 -139.5 C250 -110.5 282.333 -59.667 309 13 L502 535 L412 535 L350 358 C299.333 215.333 271.333 134.666 266 115.999 L172 357.999 L102 534.999 L8 534.999 L225 13 Z " />
<glyph glyph-name="thorn" unicode="&#xfe;" horiz-adv-x="597" d="M312 68 C295.333 68 278.666 71.5 261.999 78.5 C245.332 85.5 228.999 96.167 212.999 110.5 C196.999 124.833 184.166 145.5 174.499 172.5 C164.832 199.5 159.999 231 159.999 267 C159.999 303.667 164.666 335.667 173.999 363 C183.332 390.333 195.832 411.333 211.499 426 C227.166 440.667 243.833 451.334 261.5 458.001 C279.167 464.668 297.667 468.001 317 468.001 C360.333 468.001 396.166 450.001 424.499 414.001 C452.832 378.001 466.999 330.668 466.999 272.001 C466.999 206.668 452.332 156.335 422.999 121.002 C393.666 85.6689 356.667 68 312 68 L312 68 Z M159.999 746.002 L76.999 746.002 L76.999 -207.998 L159.999 -207.998 L159.999 81.002 C198.666 21.6689 252.666 -7.99805 321.999 -7.99805 C390.666 -7.99805 446.333 18.1689 489 70.502 C531.667 122.835 553 190.002 553 272.002 C553 348.669 532.5 413.002 491.5 465.002 C450.5 517.002 394.667 543.002 324 543.002 C252.667 543.002 198 513.002 160 453.002 L159.999 746.002 Z " />
<glyph glyph-name="ydieresis" unicode="&#xff;" horiz-adv-x="519" d="M321 671.5 C321 655.833 326.333 642.833 337 632.5 C347.667 622.167 360.667 617 376 617 C392 617 405.167 622.167 415.5 632.5 C425.833 642.833 431 655.833 431 671.5 C431 687.167 425.833 700.167 415.5 710.5 C405.167 720.833 392 726 376 726 C360.667 726 347.667 720.833 337 710.5 C326.333 700.167 321 687.167 321 671.5 L321 671.5 Z M108 672 C108 664 109.5 656.667 112.5 650 C115.5 643.333 119.333 637.5 124 632.5 C128.667 627.5 134.5 623.667 141.5 621 C148.5 618.333 156 617 164 617 C179.333 617 192 622.167 202 632.5 C212 642.833 217 656 217 672 C217 682 214.833 691.167 210.5 699.5 C206.167 707.833 199.834 714.333 191.501 719 C183.168 723.667 174.001 726 164.001 726 C148.001 726 134.668 720.833 124.001 710.5 C113.334 700.167 108 687.333 108 672 L108 672 Z M225.001 13.001 C195.001 -66.999 144.668 -106.999 74.001 -106.999 C60.001 -106.999 48.001 -105.666 38.001 -102.999 L38.001 -177.999 C49.334 -181.332 64.001 -182.999 82.001 -182.999 C130.668 -182.999 174.001 -168.499 212.001 -139.499 C250.001 -110.499 282.334 -59.666 309.001 13.001 L502.001 535.001 L412.001 535.001 L350.001 358.001 C299.334 215.334 271.334 134.667 266.001 116 L172.001 358 L102.001 535 L8.00098 535 L225.001 13.001 Z " />
<glyph glyph-name="Amacron" unicode="&#x100;" horiz-adv-x="682" d="M493 879 L196 879 L196 820 L493 820 L493 879 Z M216 260 L230 300 C296.667 498.667 334.667 613 344 643 L350 623 C353.333 610.333 364.166 575.5 382.499 518.5 C400.832 461.5 424.665 389 453.998 301 L468.998 260 L216 260 Z M554.998 0 L646.998 0 L402.998 711 L283.998 711 L36.998 0 L128.998 0 L191.998 186 L491.998 186 L554.998 0 Z " />
<glyph glyph-name="amacron" unicode="&#x101;" horiz-adv-x="518" d="M409 702 L112 702 L112 644 L409 644 L409 702 Z M365 247 L365 178 C365 156.667 360 137.334 350 120.001 C340 102.668 325.5 89.001 306.5 79.001 C287.5 69.001 265.333 64.001 240 64.001 C206 64.001 180.333 72.334 163 89.001 C145.667 105.668 137 127.335 137 154.002 C137 181.335 148.167 203.668 170.5 221.001 C192.833 238.334 226.666 247.001 271.999 247.001 L365 247 Z M88.999 423.001 C108.999 437.001 132.666 448.168 159.999 456.501 C187.332 464.834 213.999 469.001 239.999 469.001 C284.666 469.001 316.666 458.168 335.999 436.501 C355.332 414.834 364.999 383.001 364.999 341.001 L364.999 313.001 L267.999 313.001 C200.666 313.001 147.333 298.668 108 270.001 C68.667 241.334 49 201.334 49 150.001 C49 105.334 64.5 68.334 95.5 39.001 C126.5 9.66797 166.667 -4.99902 216 -4.99902 C256 -4.99902 288.167 1.66797 312.5 15.001 C336.833 28.334 354.666 44.334 365.999 63.001 L365.999 0.000976562 L447.999 0.000976562 L447.999 339.001 C447.999 406.334 431.832 457.167 399.499 491.5 C367.166 525.833 316.333 543 247 543 C179.667 543 127 531 89 507 L88.999 423.001 Z " />
<glyph glyph-name="Abreve" unicode="&#x102;" horiz-adv-x="682" d="M448 930 C448 898 439.667 872.167 423 852.5 C406.333 832.833 380 823 344 823 C307.333 823 280.5 832.833 263.5 852.5 C246.5 872.167 238 898 238 930 L170 930 C170 896.667 176 867.667 188 843 C200 818.333 219.167 798.666 245.5 783.999 C271.833 769.332 304.666 761.999 343.999 761.999 C401.332 761.999 444.499 777.166 473.499 807.499 C502.499 837.832 516.999 878.665 516.999 929.998 L448 930 Z M215.999 259.998 L229.999 299.998 C296.666 498.665 334.666 612.998 343.999 642.998 L349.999 622.998 C353.332 610.331 364.165 575.498 382.498 518.498 C400.831 461.498 424.664 388.998 453.997 300.998 L468.997 259.998 L215.999 259.998 Z M554.997 -0.00195312 L646.997 -0.00195312 L402.997 710.998 L283.997 710.998 L36.9971 -0.00195312 L128.997 -0.00195312 L191.997 185.998 L491.997 185.998 L554.997 -0.00195312 Z " />
<glyph glyph-name="abreve" unicode="&#x103;" horiz-adv-x="518" d="M368 754 C368 722 359.667 696.167 343 676.5 C326.333 656.833 300 647 264 647 C227.333 647 200.666 656.833 183.999 676.5 C167.332 696.167 158.999 722 158.999 754 L89.999 754 C89.999 720.667 95.999 691.667 107.999 667 C119.999 642.333 139.166 622.666 165.499 607.999 C191.832 593.332 224.665 585.999 263.998 585.999 C321.331 585.999 364.498 601.166 393.498 631.499 C422.498 661.832 436.998 702.665 436.998 753.998 L368 754 Z M364.998 246.998 L364.998 177.998 C364.998 156.665 359.998 137.332 349.998 119.999 C339.998 102.666 325.498 88.999 306.498 78.999 C287.498 68.999 265.331 63.999 239.998 63.999 C205.998 63.999 180.331 72.332 162.998 88.999 C145.665 105.666 136.998 127.333 136.998 154 C136.998 181.333 148.165 203.666 170.498 220.999 C192.831 238.332 226.664 246.999 271.997 246.999 L364.998 246.998 Z M88.9971 422.999 C108.997 436.999 132.664 448.166 159.997 456.499 C187.33 464.832 213.997 468.999 239.997 468.999 C284.664 468.999 316.664 458.166 335.997 436.499 C355.33 414.832 364.997 382.999 364.997 340.999 L364.997 312.999 L267.997 312.999 C200.664 312.999 147.331 298.666 107.998 269.999 C68.665 241.332 48.998 201.332 48.998 149.999 C48.998 105.332 64.498 68.332 95.498 38.999 C126.498 9.66602 166.665 -5.00098 215.998 -5.00098 C255.998 -5.00098 288.165 1.66602 312.498 14.999 C336.831 28.332 354.664 44.332 365.997 62.999 L365.997 -0.000976562 L447.997 -0.000976562 L447.997 338.999 C447.997 406.332 431.83 457.165 399.497 491.498 C367.164 525.831 316.331 542.998 246.998 542.998 C179.665 542.998 126.998 530.998 88.998 506.998 L88.9971 422.999 Z " />
<glyph glyph-name="Aogonek" unicode="&#x104;" horiz-adv-x="680" d="M215 260 L229 300 C295.667 498.667 333.667 613 343 643 L349 623 C352.333 610.333 363.166 575.5 381.499 518.5 C399.832 461.5 423.665 389 452.998 301 L467.998 260 L215 260 Z M401.998 711 L282.998 711 L35.998 0 L127.998 0 L190.998 186 L490.998 186 L550.998 10 C540.331 3.33301 530.331 -4 520.998 -12 C511.665 -20 502.832 -29 494.499 -39 C486.166 -49 478.999 -59.167 472.999 -69.5 C466.999 -79.833 462.332 -91 458.999 -103 C455.666 -115 453.999 -127 453.999 -139 C453.999 -172.333 465.332 -200 487.999 -222 C510.666 -244 542.666 -255 583.999 -255 C615.999 -255 643.666 -248 666.999 -234 L666.999 -171 C645.666 -186.333 621.666 -194 594.999 -194 C574.332 -194 557.832 -188.667 545.499 -178 C533.166 -167.333 526.999 -152 526.999 -132 C526.999 -83.333 566.666 -39.333 645.999 0 L401.998 711 Z " />
<glyph glyph-name="aogonek" unicode="&#x105;" horiz-adv-x="517" d="M365 245 L365 171 C365 157.667 361.833 144.667 355.5 132 C349.167 119.333 340.667 108.333 330 99 C319.333 89.667 306.166 82.167 290.499 76.5 C274.832 70.833 257.999 68 239.999 68 C205.999 68 180.166 75.5 162.499 90.5 C144.832 105.5 135.999 126 135.999 152 C135.999 182.667 148.832 205.834 174.499 221.501 C200.166 237.168 237.333 245.001 286 245.001 L365 245 Z M448 339.001 C448 406.334 431.833 457.167 399.5 491.5 C367.167 525.833 316.334 543 247.001 543 C217.668 543 188.501 539.5 159.501 532.5 C130.501 525.5 107.001 516.333 89.001 505 L89.001 424 C101.668 433.333 116.668 441.333 134.001 448 C151.334 454.667 169.001 459.834 187.001 463.501 C205.001 467.168 222.668 469.001 240.001 469.001 C284.668 469.001 316.668 458.168 336.001 436.501 C355.334 414.834 365.001 383.001 365.001 341.001 L365.001 314.001 L270.001 314.001 C202.001 314.001 148.168 299.501 108.501 270.501 C68.834 241.501 49.001 201.001 49.001 149.001 C49.001 102.334 64.501 65.001 95.501 37.001 C126.501 9.00098 166.668 -4.99902 216.001 -4.99902 C280.001 -4.99902 330.001 19.001 366.001 67.001 L366.001 16.001 C334.001 -2.66602 308.001 -25.333 288.001 -52 C268.001 -78.667 258.001 -107.667 258.001 -139 C258.001 -172.333 269.334 -200 292.001 -222 C314.668 -244 346.335 -255 387.002 -255 C419.002 -255 447.002 -248 471.002 -234 L471.002 -171 C449.669 -186.333 425.336 -194 398.003 -194 C376.67 -194 360.17 -188.667 348.503 -178 C336.836 -167.333 331.003 -152 331.003 -132 C331.003 -83.333 370.003 -39.333 448.003 0 L448 339.001 Z " />
<glyph glyph-name="Cacute" unicode="&#x106;" horiz-adv-x="634" d="M588 683 C543.333 707.667 483.333 720 408 720 C358 720 311 711.333 267 694 C223 676.667 185.167 652.334 153.5 621.001 C121.833 589.668 96.666 551.335 77.999 506.002 C59.332 460.669 49.999 411.336 49.999 358.003 C49.999 245.336 83.499 156.169 150.499 90.502 C217.499 24.835 304.332 -7.99805 410.999 -7.99805 C486.999 -7.99805 546.666 6.66895 589.999 36.002 L589.999 126.002 C542.666 90.002 485.333 72.002 418 72.002 C334.667 72.002 267.5 97.835 216.5 149.502 C165.5 201.169 140 270.669 140 358.002 C140 442.002 165.667 510.169 217 562.502 C268.333 614.835 332 641.002 408 641.002 C436 641.002 460.5 639.169 481.5 635.502 C502.5 631.835 520.5 627.002 535.5 621.002 C550.5 615.002 568 606.335 588 595.002 L588 683 Z M348 766.002 L421 766.002 L552 931.002 L452 931.002 L348 766.002 Z " />
<glyph glyph-name="cacute" unicode="&#x107;" horiz-adv-x="496" d="M273 589 L346 589 L477 754 L378 754 L273 589 Z M132 265 C132 322.333 150.167 370.666 186.5 409.999 C222.833 449.332 271.333 468.999 332 468.999 C349.333 468.999 368.666 466.166 389.999 460.499 C411.332 454.832 429.665 446.665 444.998 435.998 L444.998 514.998 C410.998 534.331 369.998 543.998 321.998 543.998 C293.331 543.998 265.998 540.331 239.998 532.998 C213.998 525.665 190.998 515.665 170.998 502.998 C150.998 490.331 132.998 475.331 116.998 457.998 C100.998 440.665 87.8311 421.665 77.498 400.998 C67.165 380.331 59.165 358.498 53.498 335.498 C47.8311 312.498 44.998 289.331 44.998 265.998 C44.998 215.998 55.498 170.165 76.498 128.498 C97.498 86.8311 129.165 53.1641 171.498 27.4971 C213.831 1.83008 263.331 -11.0029 319.998 -11.0029 C341.331 -11.0029 363.831 -8.33594 387.498 -3.00293 C411.165 2.33008 430.332 9.66309 444.999 18.9961 L444.999 97.9961 C408.332 74.6631 370.665 62.9961 331.998 62.9961 C268.665 62.9961 219.665 82.3291 184.998 120.996 C150.331 159.663 132.667 207.667 132 265 L132 265 Z " />
<glyph glyph-name="Ccaron" unicode="&#x10c;" horiz-adv-x="634" d="M588 683 C543.333 707.667 483.333 720 408 720 C358 720 311 711.333 267 694 C223 676.667 185.167 652.334 153.5 621.001 C121.833 589.668 96.666 551.335 77.999 506.002 C59.332 460.669 49.999 411.336 49.999 358.003 C49.999 245.336 83.499 156.169 150.499 90.502 C217.499 24.835 304.332 -7.99805 410.999 -7.99805 C486.999 -7.99805 546.666 6.66895 589.999 36.002 L589.999 126.002 C542.666 90.002 485.333 72.002 418 72.002 C334.667 72.002 267.5 97.835 216.5 149.502 C165.5 201.169 140 270.669 140 358.002 C140 442.002 165.667 510.169 217 562.502 C268.333 614.835 332 641.002 408 641.002 C436 641.002 460.5 639.169 481.5 635.502 C502.5 631.835 520.5 627.002 535.5 621.002 C550.5 615.002 568 606.335 588 595.002 L588 683 Z M439 766.002 L573 931.002 L488 931.002 L400 821.002 L309 931.002 L225 931.002 L358 766.002 L439 766.002 Z " />
<glyph glyph-name="ccaron" unicode="&#x10d;" horiz-adv-x="496" d="M445 515 C411 534.333 370 544 322 544 C293.333 544 266 540.333 240 533 C214 525.667 191 515.667 171 503 C151 490.333 133 475.333 117 458 C101 440.667 87.833 421.667 77.5 401 C67.167 380.333 59.167 358.5 53.5 335.5 C47.833 312.5 45 289.333 45 266 C45 216 55.5 170.167 76.5 128.5 C97.5 86.833 129.167 53.166 171.5 27.499 C213.833 1.83203 263.333 -11.001 320 -11.001 C341.333 -11.001 363.833 -8.33398 387.5 -3.00098 C411.167 2.33203 430.334 9.66504 445.001 18.998 L445.001 97.998 C408.334 74.665 370.667 62.998 332 62.998 C268.667 62.998 219.667 82.3311 185 120.998 C150.333 159.665 132.666 207.665 131.999 264.998 C131.999 322.331 150.166 370.664 186.499 409.997 C222.832 449.33 271.332 468.997 331.999 468.997 C349.332 468.997 368.665 466.164 389.998 460.497 C411.331 454.83 429.664 446.663 444.997 435.996 L445 515 Z M330.997 589.996 L464.997 754.996 L379.997 754.996 L290.997 644.996 L200.997 754.996 L115.997 754.996 L249.997 589.996 L330.997 589.996 Z " />
<glyph glyph-name="Dcaron" unicode="&#x10e;" horiz-adv-x="696" d="M363 765 L496 930 L412 930 L323 820 L233 930 L148 930 L282 765 L363 765 Z M168 75 L168 634 L291 634 C371.667 634 437 607.667 487 555 C537 502.333 562 437.333 562 360 C562 322 556.833 286.167 546.5 252.5 C536.167 218.833 520.5 188.666 499.5 161.999 C478.5 135.332 450.5 114.165 415.5 98.498 C380.5 82.8311 340.667 74.998 296 74.998 L168 75 Z M81 710.998 L81 -0.00195312 L297 -0.00195312 C353.667 -0.00195312 404.834 9.66504 450.501 28.998 C496.168 48.3311 533.335 74.6641 562.002 107.997 C590.669 141.33 612.669 179.497 628.002 222.497 C643.335 265.497 651.002 311.33 651.002 359.997 C651.002 463.997 617.502 548.497 550.502 613.497 C483.502 678.497 397.669 710.997 293.002 710.997 L81 710.998 Z " />
<glyph glyph-name="dcaron" unicode="&#x10f;" horiz-adv-x="695" d="M280 68 C252 68 226.833 76 204.5 92 C182.167 108 164.5 130.833 151.5 160.5 C138.5 190.167 132 224 132 262 C132 295.333 136 325.333 144 352 C152 378.667 163.167 400.334 177.5 417.001 C191.833 433.668 208.166 446.335 226.499 455.002 C244.832 463.669 264.665 468.002 285.998 468.002 C302.665 468.002 319.165 464.502 335.498 457.502 C351.831 450.502 367.998 440.002 383.998 426.002 C399.998 412.002 412.998 391.502 422.998 364.502 C432.998 337.502 437.998 306.335 437.998 271.002 C437.998 233.669 433.498 201.336 424.498 174.003 C415.498 146.67 403.165 125.503 387.498 110.503 C371.831 95.5029 355.164 84.6699 337.497 78.0029 C319.83 71.3359 300.667 68 280 68 L280 68 Z M437.996 453.003 C399.329 513.003 344.996 543.003 274.996 543.003 C207.663 543.003 152.496 517.17 109.496 465.503 C66.4961 413.836 44.9961 346.336 44.9961 263.003 C44.9961 214.336 53.4961 169.836 70.4961 129.503 C87.4961 89.1699 113.663 56.1699 148.996 30.5029 C184.329 4.83594 225.662 -7.99707 272.995 -7.99707 C344.328 -7.99707 399.328 21.0029 437.995 79.0029 L437.995 0.00292969 L520.995 0.00292969 L520.995 746.003 L437.995 746.003 L437.996 453.003 Z M670.995 746.003 L581.995 543.003 L650.995 543.003 L766.995 746.003 L670.995 746.003 Z " />
<glyph glyph-name="Dcroat" unicode="&#x110;" horiz-adv-x="769" d="M240 75 L240 320 L425 320 L425 392 L240 392 L240 634 L364 634 C444.667 634 509.834 607.667 559.501 555 C609.168 502.333 634.001 437.333 634.001 360 C634.001 322 628.834 286.167 618.501 252.5 C608.168 218.833 592.501 188.666 571.501 161.999 C550.501 135.332 522.668 114.165 488.001 98.498 C453.334 82.8311 413.667 74.998 369 74.998 L240 75 Z M154 710.998 L154 391.998 L64 391.998 L64 319.998 L154 319.998 L154 -0.00195312 L369 -0.00195312 C425.667 -0.00195312 476.834 9.66504 522.501 28.998 C568.168 48.3311 605.335 74.6641 634.002 107.997 C662.669 141.33 684.669 179.497 700.002 222.497 C715.335 265.497 723.002 311.33 723.002 359.997 C723.002 463.997 689.669 548.497 623.002 613.497 C556.335 678.497 470.335 710.997 365.002 710.997 L154 710.998 Z " />
<glyph glyph-name="dcroat" unicode="&#x111;" horiz-adv-x="597" d="M280 68 C252 68 226.833 76 204.5 92 C182.167 108 164.5 130.833 151.5 160.5 C138.5 190.167 132 224 132 262 C132 295.333 136 325.333 144 352 C152 378.667 163.167 400.334 177.5 417.001 C191.833 433.668 208.166 446.335 226.499 455.002 C244.832 463.669 264.665 468.002 285.998 468.002 C302.665 468.002 319.165 464.502 335.498 457.502 C351.831 450.502 367.998 440.002 383.998 426.002 C399.998 412.002 412.998 391.502 422.998 364.502 C432.998 337.502 437.998 306.335 437.998 271.002 C437.998 233.669 433.498 201.336 424.498 174.003 C415.498 146.67 403.165 125.503 387.498 110.503 C371.831 95.5029 355.164 84.6699 337.497 78.0029 C319.83 71.3359 300.667 68 280 68 L280 68 Z M595.996 677.003 L520.996 677.003 L520.996 746.003 L437.996 746.003 L437.996 677.003 L233.996 677.003 L233.996 619.003 L437.996 619.003 L437.996 453.003 C399.329 513.003 344.996 543.003 274.996 543.003 C207.663 543.003 152.496 517.17 109.496 465.503 C66.4961 413.836 44.9961 346.336 44.9961 263.003 C44.9961 214.336 53.4961 169.836 70.4961 129.503 C87.4961 89.1699 113.663 56.1699 148.996 30.5029 C184.329 4.83594 225.662 -7.99707 272.995 -7.99707 C344.328 -7.99707 399.328 21.0029 437.995 79.0029 L437.995 0.00292969 L520.995 0.00292969 L520.995 619.003 L595.995 619.003 L595.996 677.003 Z " />
<glyph glyph-name="Emacron" unicode="&#x112;" horiz-adv-x="528" d="M426 880 L129 880 L129 821 L426 821 L426 880 Z M167 75 L167 317 L437 317 L437 392 L167 392 L167 636 L473 636 L473 711 L81 711 L81 0 L478 0 L478 75 L167 75 Z " />
<glyph glyph-name="emacron" unicode="&#x113;" horiz-adv-x="550" d="M440 702 L142 702 L142 644 L440 644 L440 702 Z M418 302 L131 302 C135.667 355.333 152 396.5 180 425.5 C208 454.5 242 469 282 469 C324 469 357.167 455.667 381.5 429 C405.833 402.333 418 366.666 418 321.999 L418 302 Z M468 104.999 C433.333 80.999 385 68.999 323 68.999 C269 68.999 225 82.999 191 110.999 C157 138.999 137 179.332 131 231.999 L495 231.999 C499 249.999 501 270.999 501 294.999 C501 373.666 481.167 434.333 441.5 477 C401.833 519.667 348.666 541 281.999 541 C212.666 541 155.833 516.333 111.5 467 C67.167 417.667 45 350.667 45 266 C45 184.667 69.667 119.167 119 69.5 C168.333 19.833 233.666 -5 314.999 -5 C330.999 -5 348.166 -3.66699 366.499 -1 C384.832 1.66699 402.999 5.5 420.999 10.5 C438.999 15.5 454.666 21.333 467.999 28 L468 104.999 Z " />
<glyph glyph-name="Edotaccent" unicode="&#x116;" horiz-adv-x="528" d="M290 796 C306 796 319 801.333 329 812 C339 822.667 344 835.667 344 851 C344 866.333 339 879.166 329 889.499 C319 899.832 306 904.999 290 904.999 C274.667 904.999 261.667 899.832 251 889.499 C240.333 879.166 235 866.333 235 851 C235 835.667 240.333 822.667 251 812 C261.667 801.333 274.667 796 290 796 L290 796 Z M167 75 L167 317 L437 317 L437 392 L167 392 L167 636 L473 636 L473 711 L81 711 L81 0 L478 0 L478 75 L167 75 Z " />
<glyph glyph-name="edotaccent" unicode="&#x117;" horiz-adv-x="550" d="M298 619 C313.333 619 326 624.167 336 634.5 C346 644.833 351 657.833 351 673.5 C351 689.167 346 702.167 336 712.5 C326 722.833 313.333 728 298 728 C282 728 268.833 722.833 258.5 712.5 C248.167 702.167 243 689.334 243 674.001 C243 663.334 245.333 653.834 250 645.501 C254.667 637.168 261.167 630.668 269.5 626.001 C277.833 621.334 287.333 619 298 619 L298 619 Z M418 302.001 L131 302.001 C135.667 355.334 152 396.501 180 425.501 C208 454.501 242 469.001 282 469.001 C324 469.001 357.167 455.668 381.5 429.001 C405.833 402.334 418 366.667 418 322 L418 302.001 Z M468 105 C433.333 81 385 69 323 69 C269 69 225 83 191 111 C157 139 137 179.333 131 232 L495 232 C499 250 501 271 501 295 C501 373.667 481.167 434.334 441.5 477.001 C401.833 519.668 348.666 541.001 281.999 541.001 C212.666 541.001 155.833 516.334 111.5 467.001 C67.167 417.668 45 350.668 45 266.001 C45 184.668 69.667 119.168 119 69.501 C168.333 19.834 233.666 -4.99902 314.999 -4.99902 C330.999 -4.99902 348.166 -3.66602 366.499 -0.999023 C384.832 1.66797 402.999 5.50098 420.999 10.501 C438.999 15.501 454.666 21.334 467.999 28.001 L468 105 Z " />
<glyph glyph-name="Eogonek" unicode="&#x118;" horiz-adv-x="528" d="M478 0 L478 75 L167 75 L167 317 L437 317 L437 392 L167 392 L167 636 L473 636 L473 711 L81 711 L81 0 L275 0 C220.333 -41.333 193 -87.666 193 -138.999 C193 -172.999 204.167 -200.832 226.5 -222.499 C248.833 -244.166 280.333 -254.999 321 -254.999 C352.333 -254.999 380.333 -248.332 405 -234.999 L405 -170.999 C385 -186.332 361.333 -193.999 334 -193.999 C312.667 -193.999 295.834 -188.666 283.501 -177.999 C271.168 -167.332 265.001 -151.999 265.001 -131.999 C265.001 -106.666 276.001 -82.666 298.001 -59.999 C320.001 -37.332 348.668 -17.332 384.001 0.000976562 L478 0 Z " />
<glyph glyph-name="eogonek" unicode="&#x119;" horiz-adv-x="550" d="M418 302 L131 302 C135.667 355.333 152 396.5 180 425.5 C208 454.5 242 469 282 469 C324 469 357.167 455.667 381.5 429 C405.833 402.333 418 366.666 418 321.999 L418 302 Z M407 -167.001 C387 -182.334 363.333 -190.001 336 -190.001 C314.667 -190.001 297.834 -184.668 285.501 -174.001 C273.168 -163.334 267.001 -148.001 267.001 -128.001 C267.001 -82.001 304.001 -39.334 378.001 -0.000976562 C410.668 5.33203 440.668 14.665 468.001 27.998 L468.001 104.998 C433.334 80.998 385.001 68.998 323.001 68.998 C269.001 68.998 225.001 82.998 191.001 110.998 C157.001 138.998 137.001 179.331 131.001 231.998 L495.001 231.998 C499.001 249.998 501.001 270.998 501.001 294.998 C501.001 373.665 481.168 434.332 441.501 476.999 C401.834 519.666 348.667 540.999 282 540.999 C212.667 540.999 155.834 516.332 111.501 466.999 C67.168 417.666 45.001 350.666 45.001 265.999 C45.001 217.332 54.168 173.832 72.501 135.499 C90.834 97.166 116.834 66.166 150.501 42.499 C184.168 18.832 223.668 3.99902 269.001 -2.00098 C219.668 -42.668 195.001 -87.001 195.001 -135.001 C195.001 -169.001 206.168 -196.834 228.501 -218.501 C250.834 -240.168 282.334 -251.001 323.001 -251.001 C354.334 -251.001 382.334 -244.334 407.001 -231.001 L407 -167.001 Z " />
<glyph glyph-name="Ecaron" unicode="&#x11a;" horiz-adv-x="528" d="M325 765 L459 930 L376 930 L287 820 L196 930 L112 930 L246 765 L325 765 Z M167 75 L167 317 L437 317 L437 392 L167 392 L167 636 L473 636 L473 711 L81 711 L81 0 L478 0 L478 75 L167 75 Z " />
<glyph glyph-name="ecaron" unicode="&#x11b;" horiz-adv-x="550" d="M329 590 L464 755 L379 755 L290 645 L200 755 L115 755 L249 590 L329 590 Z M418 302 L131 302 C135.667 355.333 152 396.5 180 425.5 C208 454.5 242 469 282 469 C324 469 357.167 455.667 381.5 429 C405.833 402.333 418 366.666 418 321.999 L418 302 Z M468 104.999 C433.333 80.999 385 68.999 323 68.999 C269 68.999 225 82.999 191 110.999 C157 138.999 137 179.332 131 231.999 L495 231.999 C499 249.999 501 270.999 501 294.999 C501 373.666 481.167 434.333 441.5 477 C401.833 519.667 348.666 541 281.999 541 C212.666 541 155.833 516.333 111.5 467 C67.167 417.667 45 350.667 45 266 C45 184.667 69.667 119.167 119 69.5 C168.333 19.833 233.666 -5 314.999 -5 C330.999 -5 348.166 -3.66699 366.499 -1 C384.832 1.66699 402.999 5.5 420.999 10.5 C438.999 15.5 454.666 21.333 467.999 28 L468 104.999 Z " />
<glyph glyph-name="Gbreve" unicode="&#x11e;" horiz-adv-x="706" d="M493 931 C493 899 484.667 873.167 468 853.5 C451.333 833.833 425 824 389 824 C353 824 326.333 833.833 309 853.5 C291.667 873.167 283 899 283 931 L215 931 C215 879.667 229.5 838.834 258.5 808.501 C287.5 778.168 331 763.001 389 763.001 C418.333 763.001 444.166 767.168 466.499 775.501 C488.832 783.834 506.999 795.501 520.999 810.501 C534.999 825.501 545.332 843.168 551.999 863.501 C558.666 883.834 561.999 906.334 561.999 931.001 L493 931 Z M635.999 399.001 L393.999 399.001 L393.999 323.001 L550.999 323.001 L550.999 102.001 C510.332 83.334 465.999 74.001 417.999 74.001 C331.332 74.001 263.332 99.001 213.999 149.001 C164.666 199.001 139.999 268.001 139.999 356.001 C139.999 442.001 164.832 511.001 214.499 563.001 C264.166 615.001 328.999 641.001 408.999 641.001 C484.999 641.001 551.999 621.668 609.999 583.001 L609.999 675.001 C555.332 707.001 485.999 723.001 401.999 723.001 C351.999 723.001 305.332 714.001 261.999 696.001 C218.666 678.001 181.499 653.168 150.499 621.501 C119.499 589.834 94.999 551.167 76.999 505.5 C58.999 459.833 49.999 410 49.999 356 C49.999 243.333 83.499 154.5 150.499 89.5 C217.499 24.5 305.666 -8 414.999 -8 C458.332 -8 499.499 -2.33301 538.499 9 C577.499 20.333 609.999 36 635.999 56 L633.999 59 L635.999 59 L635.999 399.001 Z " />
<glyph glyph-name="gbreve" unicode="&#x11f;" horiz-adv-x="578" d="M412 755 C412 723 403.667 697.167 387 677.5 C370.333 657.833 344 648 308 648 C271.333 648 244.666 657.833 227.999 677.5 C211.332 697.167 202.999 723 202.999 755 L133.999 755 C133.999 703.667 148.499 662.834 177.499 632.501 C206.499 602.168 249.999 587.001 307.999 587.001 C365.332 587.001 408.499 602.168 437.499 632.501 C466.499 662.834 480.999 703.667 480.999 755 L412 755 Z M276.999 88 C239.666 88 206.333 103.5 177 134.5 C147.667 165.5 133 211 133 271 C133 309.667 138.833 343.667 150.5 373 C162.167 402.333 179.334 425.5 202.001 442.5 C224.668 459.5 251.001 468 281.001 468 C298.334 468 315.167 464.167 331.5 456.5 C347.833 448.833 363.166 437.5 377.499 422.5 C391.832 407.5 403.332 386.5 411.999 359.5 C420.666 332.5 424.999 301.333 424.999 266 C424.999 235.333 420.499 208.166 411.499 184.499 C402.499 160.832 390.666 142.165 375.999 128.498 C361.332 114.831 345.499 104.664 328.499 97.9971 C311.499 91.3301 294.332 88 276.999 88 L276.999 88 Z M424.999 534.997 L424.999 445.997 C390.332 509.997 336.665 541.997 263.998 541.997 C198.665 541.997 145.998 516.33 105.998 464.997 C65.998 413.664 45.998 348.331 45.998 268.998 C45.998 188.998 67.665 126.331 110.998 80.998 C154.331 35.665 206.664 12.998 267.997 12.998 C337.33 12.998 389.663 43.3311 424.996 103.998 L424.996 43.998 C424.996 -14.002 410.329 -56.835 380.996 -84.502 C351.663 -112.169 311.33 -126.002 259.997 -126.002 C197.997 -126.002 144.997 -113.002 100.997 -87.002 L100.997 -170.002 C145.664 -192.002 200.997 -203.002 266.997 -203.002 C300.33 -203.002 331.33 -198.169 359.997 -188.502 C388.664 -178.835 414.331 -164.335 436.998 -145.002 C459.665 -125.669 477.332 -99.8359 489.999 -67.5029 C502.666 -35.1699 508.999 1.66309 508.999 42.9961 L508.999 534.996 L424.999 534.997 Z " />
<glyph glyph-name="uni0122" unicode="&#x122;" horiz-adv-x="706" d="M259 -256 L327 -256 L444 -54 L347 -54 L259 -256 Z M636 399 L394 399 L394 323 L551 323 L551 102 C510.333 83.333 466 74 418 74 C331.333 74 263.333 99 214 149 C164.667 199 140 268 140 356 C140 442 164.833 511 214.5 563 C264.167 615 329 641 409 641 C485 641 552 621.667 610 583 L610 675 C555.333 707 486 723 402 723 C352 723 305.333 714 262 696 C218.667 678 181.5 653.167 150.5 621.5 C119.5 589.833 95 551.166 77 505.499 C59 459.832 50 409.999 50 355.999 C50 243.332 83.5 154.499 150.5 89.499 C217.5 24.499 305.667 -8.00098 415 -8.00098 C458.333 -8.00098 499.5 -2.33398 538.5 8.99902 C577.5 20.332 610 35.999 636 55.999 L634 58.999 L636 58.999 L636 399 Z " />
<glyph glyph-name="uni0123" unicode="&#x123;" horiz-adv-x="578" d="M462 793 L393 793 L276 590 L372 590 L462 793 Z M277 88 C239.667 88 206.334 103.5 177.001 134.5 C147.668 165.5 133.001 211 133.001 271 C133.001 309.667 138.834 343.667 150.501 373 C162.168 402.333 179.335 425.5 202.002 442.5 C224.669 459.5 251.002 468 281.002 468 C298.335 468 315.168 464.167 331.501 456.5 C347.834 448.833 363.167 437.5 377.5 422.5 C391.833 407.5 403.333 386.5 412 359.5 C420.667 332.5 425 301.333 425 266 C425 235.333 420.5 208.166 411.5 184.499 C402.5 160.832 390.667 142.165 376 128.498 C361.333 114.831 345.5 104.664 328.5 97.9971 C311.5 91.3301 294.333 88 277 88 L277 88 Z M425 534.997 L425 445.997 C390.333 509.997 336.666 541.997 263.999 541.997 C198.666 541.997 145.999 516.33 105.999 464.997 C65.999 413.664 45.999 348.331 45.999 268.998 C45.999 188.998 67.666 126.331 110.999 80.998 C154.332 35.665 206.665 12.998 267.998 12.998 C337.331 12.998 389.664 43.3311 424.997 103.998 L424.997 43.998 C424.997 -14.002 410.33 -56.835 380.997 -84.502 C351.664 -112.169 311.331 -126.002 259.998 -126.002 C197.998 -126.002 144.998 -113.002 100.998 -87.002 L100.998 -170.002 C145.665 -192.002 200.998 -203.002 266.998 -203.002 C300.331 -203.002 331.331 -198.169 359.998 -188.502 C388.665 -178.835 414.332 -164.335 436.999 -145.002 C459.666 -125.669 477.333 -99.8359 490 -67.5029 C502.667 -35.1699 509 1.66309 509 42.9961 L509 534.996 L425 534.997 Z " />
<glyph glyph-name="Imacron" unicode="&#x12a;" horiz-adv-x="259" d="M88 0 L173 0 L173 711 L88 711 L88 0 Z M279 820 L279 879 L-18 879 L-18 820 L279 820 Z " />
<glyph glyph-name="imacron" unicode="&#x12b;" horiz-adv-x="245" d="M81 0 L165 0 L165 535 L81 535 L81 0 Z M272 644 L272 702 L-26 702 L-26 644 L272 644 Z " />
<glyph glyph-name="Iogonek" unicode="&#x12e;" horiz-adv-x="259" d="M173 1 L173 711 L88 711 L88 14 C56.667 -4.66699 31.5 -27 12.5 -53 C-6.5 -79 -16 -107.667 -16 -139 C-16 -173 -4.83301 -200.833 17.5 -222.5 C39.833 -244.167 71.333 -255 112 -255 C142.667 -255 170.334 -248.333 195.001 -235 L195.001 -171 C174.334 -186.333 150.667 -194 124 -194 C102.667 -194 85.834 -188.667 73.501 -178 C61.168 -167.333 55.001 -152 55.001 -132 C55.001 -106.667 66.001 -82.667 88.001 -60 C110.001 -37.333 138.668 -17.333 174.001 0 L173 1 Z " />
<glyph glyph-name="iogonek" unicode="&#x12f;" horiz-adv-x="245" d="M122.5 649 C138.167 649 151.167 654 161.5 664 C171.833 674 177 686.833 177 702.5 C177 718.167 171.833 731.167 161.5 741.5 C151.167 751.833 138.167 757 122.5 757 C106.833 757 94 751.833 84 741.5 C74 731.167 69 718.167 69 702.5 C69 686.833 74 674 84 664 C94 654 106.833 649 122.5 649 L122.5 649 Z M165 535 L81 535 L81 16 C49.667 -2.66699 23.834 -25.334 3.50098 -52.001 C-16.832 -78.668 -26.999 -107.668 -26.999 -139.001 C-26.999 -173.001 -15.666 -200.834 7.00098 -222.501 C29.668 -244.168 61.335 -255.001 102.002 -255.001 C133.335 -255.001 161.002 -248.334 185.002 -235.001 L185.002 -171.001 C165.002 -186.334 141.335 -194.001 114.002 -194.001 C93.335 -194.001 76.668 -188.668 64.001 -178.001 C51.334 -167.334 45.001 -152.001 45.001 -132.001 C45.001 -106.668 56.168 -82.668 78.501 -60.001 C100.834 -37.334 129.667 -17.334 165 -0.000976562 L165 535 Z " />
<glyph glyph-name="Idotaccent" unicode="&#x130;" horiz-adv-x="259" d="M88 0 L173 0 L173 711 L88 711 L88 0 Z M77 852 C77 841.333 79.333 832 84 824 C88.667 816 95.167 809.5 103.5 804.5 C111.833 799.5 121.333 797 132 797 C147.333 797 160 802.333 170 813 C180 823.667 185 836.667 185 852 C185 867.333 180 880.166 170 890.499 C160 900.832 147.333 905.999 132 905.999 C116 905.999 102.833 900.832 92.5 890.499 C82.167 880.166 77 867.333 77 852 L77 852 Z " />
<glyph glyph-name="dotlessi" unicode="&#x131;" horiz-adv-x="245" d="M81 0 L165 0 L165 535 L81 535 L81 0 Z " />
<glyph glyph-name="uni0136" unicode="&#x136;" horiz-adv-x="603" d="M81 0 L167 0 L167 711 L81 711 L81 0 Z M174 -256 L243 -256 L359 -54 L264 -54 L174 -256 Z M289 351 L560 711 L454 711 L183 351 L465 0 L575 0 L289 351 Z " />
<glyph glyph-name="uni0137" unicode="&#x137;" horiz-adv-x="505" d="M160 742 L77 742 L77 0 L160 0 L160 742 Z M124 -256 L192 -256 L309 -54 L213 -54 L124 -256 Z M268 280 L479 535 L380 535 L170 280 L385 0 L485 0 L268 280 Z " />
<glyph glyph-name="Lacute" unicode="&#x139;" horiz-adv-x="502" d="M473 931 L373 931 L269 766 L342 766 L473 931 Z M167 711 L81 711 L81 0 L470 0 L470 77 L167 77 L167 711 Z " />
<glyph glyph-name="lacute" unicode="&#x13a;" horiz-adv-x="245" d="M89 801 L162 801 L293 966 L193 966 L89 801 Z M81 0 L165 0 L165 746 L81 746 L81 0 Z " />
<glyph glyph-name="uni013B" unicode="&#x13b;" horiz-adv-x="502" d="M146 -256 L215 -256 L333 -54 L235 -54 L146 -256 Z M167 77 L167 711 L81 711 L81 0 L470 0 L470 77 L167 77 Z " />
<glyph glyph-name="uni013C" unicode="&#x13c;" horiz-adv-x="245" d="M81 0 L165 0 L165 746 L81 746 L81 0 Z M-13 -256 L55 -256 L172 -54 L75 -54 L-13 -256 Z " />
<glyph glyph-name="Lcaron" unicode="&#x13d;" horiz-adv-x="502" d="M447 740 L351 740 L262 537 L331 537 L447 740 Z M167 77 L167 711 L81 711 L81 0 L470 0 L470 77 L167 77 Z " />
<glyph glyph-name="lcaron" unicode="&#x13e;" horiz-adv-x="272" d="M81 0 L165 0 L165 746 L81 746 L81 0 Z M235 543 L304 543 L421 746 L324 746 L235 543 Z " />
<glyph glyph-name="Lslash" unicode="&#x141;" horiz-adv-x="527" d="M187 77 L187 317 L346 426 L346 509 L187 399 L187 711 L102 711 L102 340 L31 290 L31 209 L102 259 L102 0 L490 0 L490 77 L187 77 Z " />
<glyph glyph-name="lslash" unicode="&#x142;" horiz-adv-x="305" d="M275 522 L190 460 L190 746 L106 746 L106 402 L35 351 L35 270 L106 320 L106 0 L190 0 L190 380 L275 440 L275 522 Z " />
<glyph glyph-name="Nacute" unicode="&#x143;" horiz-adv-x="709" d="M344 765 L416 765 L547 930 L448 930 L344 765 Z M81 0 L167 0 L167 300 C167 432.667 165.333 535.667 162 609 L180 576 C192 554 213.167 517 243.5 465 C273.833 413 307 357.333 343 298 L521 0 L628 0 L628 711 L543 711 L543 410 C543 273.333 544.333 171 547 103 L529 134 C517.667 154.667 497 190.667 467 242 C437 293.333 403.667 349.666 367 410.999 L188 710.999 L81 710.999 L81 0 Z " />
<glyph glyph-name="nacute" unicode="&#x144;" horiz-adv-x="568" d="M484 755 L385 755 L280 590 L353 590 L484 755 Z M160 535 L77 535 L77 0 L160 0 L160 293 C160 347.667 174.333 390.5 203 421.5 C231.667 452.5 266.334 468 307.001 468 C339.001 468 365.001 457.5 385.001 436.5 C405.001 415.5 415.001 385.333 415.001 346 L415.001 0 L499.001 0 L499.001 368 C499.001 420.667 483.334 462.834 452.001 494.501 C420.668 526.168 379.335 542.001 328.002 542.001 C247.335 542.001 191.335 508.668 160.002 442.001 L160 535 Z " />
<glyph glyph-name="uni0145" unicode="&#x145;" horiz-adv-x="709" d="M230 -256 L299 -256 L415 -54 L318 -54 L230 -256 Z M81 0 L167 0 L167 300 C167 432.667 165.333 535.667 162 609 L180 576 C192 554 213.167 517 243.5 465 C273.833 413 307 357.333 343 298 L521 0 L628 0 L628 711 L543 711 L543 410 C543 273.333 544.333 171 547 103 L529 134 C517.667 154.667 497 190.667 467 242 C437 293.333 403.667 349.666 367 410.999 L188 710.999 L81 710.999 L81 0 Z " />
<glyph glyph-name="uni0146" unicode="&#x146;" horiz-adv-x="568" d="M158 -256 L226 -256 L343 -54 L246 -54 L158 -256 Z M160 535 L77 535 L77 0 L160 0 L160 293 C160 347.667 174.333 390.5 203 421.5 C231.667 452.5 266.334 468 307.001 468 C339.001 468 365.001 457.5 385.001 436.5 C405.001 415.5 415.001 385.333 415.001 346 L415.001 0 L499.001 0 L499.001 368 C499.001 420.667 483.334 462.834 452.001 494.501 C420.668 526.168 379.335 542.001 328.002 542.001 C247.335 542.001 191.335 508.668 160.002 442.001 L160 535 Z " />
<glyph glyph-name="Ncaron" unicode="&#x147;" horiz-adv-x="709" d="M81 0 L167 0 L167 300 C167 432.667 165.333 535.667 162 609 L180 576 C192 554 213.167 517 243.5 465 C273.833 413 307 357.333 343 298 L521 0 L628 0 L628 711 L543 711 L543 410 C543 273.333 544.333 171 547 103 L529 134 C517.667 154.667 497 190.667 467 242 C437 293.333 403.667 349.666 367 410.999 L188 710.999 L81 710.999 L81 0 Z M412 765.999 L546 930.999 L462 930.999 L373 820.999 L282 930.999 L199 930.999 L333 765.999 L412 765.999 Z " />
<glyph glyph-name="ncaron" unicode="&#x148;" horiz-adv-x="568" d="M343 590 L477 755 L392 755 L304 645 L213 755 L129 755 L263 590 L343 590 Z M160 535 L77 535 L77 0 L160 0 L160 293 C160 347.667 174.333 390.5 203 421.5 C231.667 452.5 266.334 468 307.001 468 C339.001 468 365.001 457.5 385.001 436.5 C405.001 415.5 415.001 385.333 415.001 346 L415.001 0 L499.001 0 L499.001 368 C499.001 420.667 483.334 462.834 452.001 494.501 C420.668 526.168 379.335 542.001 328.002 542.001 C247.335 542.001 191.335 508.668 160.002 442.001 L160 535 Z " />
<glyph glyph-name="Omacron" unicode="&#x14c;" horiz-adv-x="737" d="M519 820 L519 879 L221 879 L221 820 L519 820 Z M50 358 C50 247.333 79.333 158.666 138 91.999 C196.667 25.332 274 -8.00098 370 -8.00098 C467.333 -8.00098 544.833 25.166 602.5 91.499 C660.167 157.832 689 246.665 689 357.998 C689 470.665 660.667 559.832 604 625.499 C547.333 691.166 469 723.999 369 723.999 C271.667 723.999 194.167 690.999 136.5 624.999 C78.833 558.999 50 470 50 358 L50 358 Z M140 357.999 C140 417.332 149 468.499 167 511.499 C185 554.499 211.333 587.499 246 610.499 C280.667 633.499 321.667 644.999 369 644.999 C441.667 644.999 498 619.499 538 568.499 C578 517.499 598 447.332 598 357.999 C598 313.999 593 274.332 583 238.999 C573 203.666 558.333 173.833 539 149.5 C519.667 125.167 495.667 106.334 467 93.001 C438.333 79.668 406 73.001 370 73.001 C300 73.001 244.167 98.668 202.5 150.001 C160.833 201.334 140 270.666 140 357.999 L140 357.999 Z " />
<glyph glyph-name="omacron" unicode="&#x14d;" horiz-adv-x="592" d="M448 644 L448 702 L150 702 L150 644 L448 644 Z M295 -9 C373.667 -9 435.334 16.833 480.001 68.5 C524.668 120.167 547.001 186 547.001 266 C547.001 318 537.834 364.333 519.501 405 C501.168 445.667 472.668 478.667 434.001 504 C395.334 529.333 349.001 542 295.001 542 C221.001 542 160.834 515.5 114.501 462.5 C68.168 409.5 45.001 343.333 45.001 264 C45.001 185.333 67.334 120.166 112.001 68.499 C156.668 16.832 217.667 -9 295 -9 L295 -9 Z M295.001 468.999 C323.668 468.999 349.001 463.499 371.001 452.499 C393.001 441.499 410.334 426.332 423.001 406.999 C435.668 387.666 445.001 365.999 451.001 341.999 C457.001 317.999 460.001 292.332 460.001 264.999 C460.001 207.666 445.834 159.833 417.501 121.5 C389.168 83.167 348.335 64 295.002 64 C245.669 64 206.169 83.667 176.502 123 C146.835 162.333 132.002 209.666 132.002 264.999 C132.002 301.666 138.002 335.166 150.002 365.499 C162.002 395.832 180.669 420.665 206.002 439.998 C231.335 459.331 261.001 468.999 295.001 468.999 L295.001 468.999 Z " />
<glyph glyph-name="Ohungarumlaut" unicode="&#x150;" horiz-adv-x="737" d="M436 766 L500 766 L642 931 L542 931 L436 766 Z M271 766 L336 766 L470 931 L372 931 L271 766 Z M50 358 C50 247.333 79.333 158.666 138 91.999 C196.667 25.332 274 -8.00098 370 -8.00098 C467.333 -8.00098 544.833 25.166 602.5 91.499 C660.167 157.832 689 246.665 689 357.998 C689 470.665 660.667 559.832 604 625.499 C547.333 691.166 469 723.999 369 723.999 C271.667 723.999 194.167 690.999 136.5 624.999 C78.833 558.999 50 470 50 358 L50 358 Z M140 357.999 C140 417.332 149 468.499 167 511.499 C185 554.499 211.333 587.499 246 610.499 C280.667 633.499 321.667 644.999 369 644.999 C441.667 644.999 498 619.499 538 568.499 C578 517.499 598 447.332 598 357.999 C598 313.999 593 274.332 583 238.999 C573 203.666 558.333 173.833 539 149.5 C519.667 125.167 495.667 106.334 467 93.001 C438.333 79.668 406 73.001 370 73.001 C300 73.001 244.167 98.668 202.5 150.001 C160.833 201.334 140 270.666 140 357.999 L140 357.999 Z " />
<glyph glyph-name="ohungarumlaut" unicode="&#x151;" horiz-adv-x="592" d="M368 590 L433 590 L574 755 L475 755 L368 590 Z M204 590 L268 590 L402 755 L305 755 L204 590 Z M295 -9 C373.667 -9 435.334 16.833 480.001 68.5 C524.668 120.167 547.001 186 547.001 266 C547.001 318 537.834 364.333 519.501 405 C501.168 445.667 472.668 478.667 434.001 504 C395.334 529.333 349.001 542 295.001 542 C221.001 542 160.834 515.5 114.501 462.5 C68.168 409.5 45.001 343.333 45.001 264 C45.001 185.333 67.334 120.166 112.001 68.499 C156.668 16.832 217.667 -9 295 -9 L295 -9 Z M295.001 468.999 C323.668 468.999 349.001 463.499 371.001 452.499 C393.001 441.499 410.334 426.332 423.001 406.999 C435.668 387.666 445.001 365.999 451.001 341.999 C457.001 317.999 460.001 292.332 460.001 264.999 C460.001 207.666 445.834 159.833 417.501 121.5 C389.168 83.167 348.335 64 295.002 64 C245.669 64 206.169 83.667 176.502 123 C146.835 162.333 132.002 209.666 132.002 264.999 C132.002 301.666 138.002 335.166 150.002 365.499 C162.002 395.832 180.669 420.665 206.002 439.998 C231.335 459.331 261.001 468.999 295.001 468.999 L295.001 468.999 Z " />
<glyph glyph-name="OE" unicode="&#x152;" horiz-adv-x="1036" d="M365 73 C295.667 73 240.834 98.5 200.501 149.5 C160.168 200.5 140.001 270 140.001 358 C140.001 447.333 159.501 517.5 198.501 568.5 C237.501 619.5 292.668 645 364.001 645 C436.001 645 491.501 619.667 530.501 569 C569.501 518.333 589.001 448 589.001 358 C589.001 268.667 569.501 198.834 530.501 148.501 C491.501 98.168 436.333 73 365 73 L365 73 Z M673.001 75.001 L673.001 317.001 L946.001 317.001 L946.001 392.001 L673.001 392.001 L673.001 636.001 L981.001 636.001 L981.001 711.001 L589.001 711.001 L589.001 624.001 C534.334 690.668 459.334 724.001 364.001 724.001 C266.668 724.001 190.001 691.001 134.001 625.001 C78.001 559.001 50.001 470.001 50.001 358.001 C50.001 246.668 78.501 157.835 135.501 91.502 C192.501 25.1689 269.001 -7.99805 365.001 -7.99805 C459.001 -7.99805 533.668 25.6689 589.001 93.002 L589.001 0.00195312 L986.001 0.00195312 L986.001 75.002 L673.001 75.001 Z " />
<glyph glyph-name="oe" unicode="&#x153;" horiz-adv-x="940" d="M814 302 L527 302 C532.333 356.667 549.5 398.167 578.5 426.5 C607.5 454.833 642 469 682 469 C701.333 469 718.833 465.833 734.5 459.5 C750.167 453.167 764 444 776 432 C788 420 797.167 404.833 803.5 386.5 C809.833 368.167 813.333 347.334 814 324.001 L814 302 Z M287 64.001 C238.333 64.001 200.333 83.334 173 122.001 C145.667 160.668 132 208.335 132 265.002 C132 322.335 145.167 370.668 171.5 410.001 C197.833 449.334 236 469.001 286 469.001 C315.333 469.001 340.5 463.501 361.5 452.501 C382.5 441.501 398.667 426.168 410 406.501 C421.333 386.834 429.5 365.334 434.5 342.001 C439.5 318.668 442 293.001 442 265.001 C442 206.334 429.333 158.167 404 120.5 C378.667 82.833 339.667 64.001 287 64.001 L287 64.001 Z M859 105 C824.333 81 777 69 717 69 C691.667 69 668.334 72.5 647.001 79.5 C625.668 86.5 606.668 96.667 590.001 110 C573.334 123.333 559.501 140.333 548.501 161 C537.501 181.667 530.334 205.334 527.001 232.001 L891.001 232.001 C894.334 250.001 896.001 269.334 896.001 290.001 C896.001 371.334 877.501 433.501 840.501 476.501 C803.501 519.501 750.668 541.001 682.001 541.001 C640.668 541.001 602.835 531.834 568.502 513.501 C534.169 495.168 506.336 469.001 485.003 435.001 C443.003 506.334 376.67 542.001 286.003 542.001 C212.67 542.001 154.17 515.668 110.503 463.001 C66.8359 410.334 45.0029 344.001 45.0029 264.001 C45.0029 184.668 66.1699 119.335 108.503 68.002 C150.836 16.6689 210.003 -8.99805 286.003 -8.99805 C332.67 -8.99805 373.003 0.834961 407.003 20.502 C441.003 40.1689 467.67 68.002 487.003 104.002 C511.003 68.6689 542.17 41.6689 580.503 23.002 C618.836 4.33496 661.669 -4.99805 709.002 -4.99805 C733.002 -4.99805 759.169 -1.99805 787.502 4.00195 C815.835 10.002 839.668 18.002 859.001 28.002 L859 105 Z " />
<glyph glyph-name="Racute" unicode="&#x154;" horiz-adv-x="577" d="M452 931 L353 931 L249 766 L321 766 L452 931 Z M167 637 L265 637 C371 637 424 589.333 424 494 C424 453.333 411.167 419.666 385.5 392.999 C359.833 366.332 322.666 352.999 273.999 352.999 L166.999 352.999 L167 637 Z M553.999 -0.000976562 L366.999 294.999 C388.999 301.666 408.999 311.166 426.999 323.499 C444.999 335.832 459.999 350.499 471.999 367.499 C483.999 384.499 493.332 403.499 499.999 424.499 C506.666 445.499 510.333 467.999 511 491.999 C511 560.666 489.667 614.333 447 653 C404.333 691.667 342 711 260 711 L81 711 L81 0 L167 0 L167 280 L269 280 L277 280 L451 0 L553.999 -0.000976562 Z " />
<glyph glyph-name="racute" unicode="&#x155;" horiz-adv-x="342" d="M381 755 L281 755 L177 590 L250 590 L381 755 Z M160 535 L77 535 L76 0 L160 0 L160 293 C160 337.667 172.167 377.334 196.5 412.001 C220.833 446.668 251.666 464.001 288.999 464.001 C302.999 464.001 318.332 461.001 334.999 455.001 L334.999 538.001 C327.666 539.334 317.666 540.001 304.999 540.001 C236.999 540.001 188.666 507.001 159.999 441.001 L160 535 Z " />
<glyph glyph-name="uni0156" unicode="&#x156;" horiz-adv-x="577" d="M166 -256 L234 -256 L351 -54 L255 -54 L166 -256 Z M167 637 L265 637 C371 637 424 589.333 424 494 C424 453.333 411.167 419.666 385.5 392.999 C359.833 366.332 322.666 352.999 273.999 352.999 L166.999 352.999 L167 637 Z M366.999 294.999 C388.999 301.666 408.999 311.166 426.999 323.499 C444.999 335.832 459.999 350.499 471.999 367.499 C483.999 384.499 493.332 403.499 499.999 424.499 C506.666 445.499 510.333 467.999 511 491.999 C511 560.666 489.667 614.333 447 653 C404.333 691.667 342 711 260 711 L81 711 L81 0 L167 0 L167 280 L269 280 L277 280 L451 0 L554 0 L366.999 294.999 Z " />
<glyph glyph-name="uni0157" unicode="&#x157;" horiz-adv-x="342" d="M-21 -256 L47 -256 L165 -54 L68 -54 L-21 -256 Z M160 535 L77 535 L76 0 L160 0 L160 293 C160 337.667 172.167 377.334 196.5 412.001 C220.833 446.668 251.666 464.001 288.999 464.001 C302.999 464.001 318.332 461.001 334.999 455.001 L334.999 538.001 C327.666 539.334 317.666 540.001 304.999 540.001 C236.999 540.001 188.666 507.001 159.999 441.001 L160 535 Z " />
<glyph glyph-name="Rcaron" unicode="&#x158;" horiz-adv-x="577" d="M334 765 L468 930 L383 930 L295 820 L204 930 L119 930 L253 765 L334 765 Z M167 637 L265 637 C371 637 424 589.333 424 494 C424 453.333 411.167 419.666 385.5 392.999 C359.833 366.332 322.666 352.999 273.999 352.999 L166.999 352.999 L167 637 Z M553.999 -0.000976562 L366.999 294.999 C388.999 301.666 408.999 311.166 426.999 323.499 C444.999 335.832 459.999 350.499 471.999 367.499 C483.999 384.499 493.332 403.499 499.999 424.499 C506.666 445.499 510.333 467.999 511 491.999 C511 560.666 489.667 614.333 447 653 C404.333 691.667 342 711 260 711 L81 711 L81 0 L167 0 L167 280 L269 280 L277 280 L451 0 L553.999 -0.000976562 Z " />
<glyph glyph-name="rcaron" unicode="&#x159;" horiz-adv-x="342" d="M253 589 L387 754 L303 754 L214 644 L124 754 L39 754 L173 589 L253 589 Z M160 535 L77 535 L76 0 L160 0 L160 293 C160 337.667 172.167 377.334 196.5 412.001 C220.833 446.668 251.666 464.001 288.999 464.001 C302.999 464.001 318.332 461.001 334.999 455.001 L334.999 538.001 C327.666 539.334 317.666 540.001 304.999 540.001 C236.999 540.001 188.666 507.001 159.999 441.001 L160 535 Z " />
<glyph glyph-name="Sacute" unicode="&#x15a;" horiz-adv-x="552" d="M261 765 L334 765 L465 930 L365 930 L261 765 Z M453 685 C412.333 706.333 360.666 717 297.999 717 C231.999 717 177.499 700 134.499 666 C91.499 632 69.999 584.667 69.999 524 C69.999 507.333 71.999 491.5 75.999 476.5 C79.999 461.5 84.832 448.667 90.499 438 C96.166 427.333 104.499 416.5 115.499 405.5 C126.499 394.5 136.332 385.667 144.999 379 C153.666 372.333 165.666 364.833 180.999 356.5 C196.332 348.167 208.499 342 217.499 338 C226.499 334 239.332 328 255.999 320 C264.666 316.667 270.999 314 274.999 312 C318.332 292.667 350.499 274.167 371.499 256.5 C392.499 238.833 402.999 215.333 402.999 186 C402.999 149.333 390.332 121.166 364.999 101.499 C339.666 81.832 304.999 71.999 260.999 71.999 C226.332 71.999 192.165 77.166 158.498 87.499 C124.831 97.832 96.3311 111.999 72.998 129.999 L72.998 37.999 C124.331 7.99902 187.664 -7.00098 262.997 -7.00098 C330.33 -7.00098 385.33 9.99902 427.997 43.999 C470.664 77.999 491.997 125.999 491.997 187.999 C491.997 205.332 489.997 221.499 485.997 236.499 C481.997 251.499 477.164 264.499 471.497 275.499 C465.83 286.499 457.33 297.499 445.997 308.499 C434.664 319.499 424.664 328.332 415.997 334.999 C407.33 341.666 395.163 349.166 379.496 357.499 C363.829 365.832 351.662 371.999 342.995 375.999 C334.328 379.999 321.328 385.666 303.995 392.999 C287.995 400.332 276.995 405.332 270.995 407.999 C264.995 410.666 255.495 415.333 242.495 422 C229.495 428.667 220.162 434.167 214.495 438.5 C208.828 442.833 201.661 448.5 192.994 455.5 C184.327 462.5 178.16 469.333 174.493 476 C170.826 482.667 167.493 490.5 164.493 499.5 C161.493 508.5 159.993 518 159.993 528 C159.993 560.667 172.66 587 197.993 607 C223.326 627 257.326 637 299.993 637 C327.326 637 354.993 633.167 382.993 625.5 C410.993 617.833 434.326 607.666 452.993 594.999 L453 685 Z " />
<glyph glyph-name="sacute" unicode="&#x15b;" horiz-adv-x="433" d="M199 590 L271 590 L402 755 L303 755 L199 590 Z M368 517 C333.333 532.333 288.666 540 233.999 540 C201.332 540 171.832 534.333 145.499 523 C119.166 511.667 98.166 494.834 82.499 472.501 C66.832 450.168 58.999 424.001 58.999 394.001 C58.999 377.334 61.666 361.834 66.999 347.501 C72.332 333.168 78.999 321.001 86.999 311.001 C94.999 301.001 105.166 291.501 117.499 282.501 C129.832 273.501 141.665 266.168 152.998 260.501 C164.331 254.834 177.331 249.001 191.998 243.001 C234.665 225.668 265.498 209.668 284.498 195.001 C303.498 180.334 312.998 160.667 312.998 136 C312.998 114.667 304.665 97.5 287.998 84.5 C271.331 71.5 246.664 65 213.997 65 C159.33 65 108.663 79 61.9961 107 L61.9961 27 C103.329 5 155.662 -6 218.995 -6 C274.995 -6 318.995 7.16699 350.995 33.5 C382.995 59.833 398.995 96 398.995 142 C398.995 158.667 396.328 174.167 390.995 188.5 C385.662 202.833 378.829 215.166 370.496 225.499 C362.163 235.832 351.33 245.665 337.997 254.998 C324.664 264.331 311.831 272.164 299.498 278.497 C287.165 284.83 272.332 291.663 254.999 298.996 C252.332 300.329 247.999 302.329 241.999 304.996 C224.666 312.329 211.833 318.162 203.5 322.495 C195.167 326.828 185.334 332.828 174.001 340.495 C162.668 348.162 154.668 356.662 150.001 365.995 C145.334 375.328 143.001 385.995 143.001 397.995 C143.001 417.995 151.334 434.662 168.001 447.995 C184.668 461.328 207.001 467.995 235.001 467.995 C289.668 467.995 334.001 457.995 368.001 437.995 L368 517 Z " />
<glyph glyph-name="Scedilla" unicode="&#x15e;" horiz-adv-x="552" d="M453 685 C412.333 706.333 360.666 717 297.999 717 C231.999 717 177.499 700 134.499 666 C91.499 632 69.999 584.667 69.999 524 C69.999 507.333 71.999 491.5 75.999 476.5 C79.999 461.5 84.832 448.667 90.499 438 C96.166 427.333 104.499 416.5 115.499 405.5 C126.499 394.5 136.332 385.667 144.999 379 C153.666 372.333 165.666 364.833 180.999 356.5 C196.332 348.167 208.499 342 217.499 338 C226.499 334 239.332 328 255.999 320 C264.666 316.667 270.999 314 274.999 312 C318.332 292.667 350.499 274.167 371.499 256.5 C392.499 238.833 402.999 215.333 402.999 186 C402.999 149.333 390.332 121.166 364.999 101.499 C339.666 81.832 304.999 71.999 260.999 71.999 C226.332 71.999 192.165 77.166 158.498 87.499 C124.831 97.832 96.3311 111.999 72.998 129.999 L72.998 37.999 C124.331 7.99902 187.664 -7.00098 262.997 -7.00098 C330.33 -7.00098 385.33 9.99902 427.997 43.999 C470.664 77.999 491.997 125.999 491.997 187.999 C491.997 205.332 489.997 221.499 485.997 236.499 C481.997 251.499 477.164 264.499 471.497 275.499 C465.83 286.499 457.33 297.499 445.997 308.499 C434.664 319.499 424.664 328.332 415.997 334.999 C407.33 341.666 395.163 349.166 379.496 357.499 C363.829 365.832 351.662 371.999 342.995 375.999 C334.328 379.999 321.328 385.666 303.995 392.999 C287.995 400.332 276.995 405.332 270.995 407.999 C264.995 410.666 255.495 415.333 242.495 422 C229.495 428.667 220.162 434.167 214.495 438.5 C208.828 442.833 201.661 448.5 192.994 455.5 C184.327 462.5 178.16 469.333 174.493 476 C170.826 482.667 167.493 490.5 164.493 499.5 C161.493 508.5 159.993 518 159.993 528 C159.993 560.667 172.66 587 197.993 607 C223.326 627 257.326 637 299.993 637 C327.326 637 354.993 633.167 382.993 625.5 C410.993 617.833 434.326 607.666 452.993 594.999 L453 685 Z M330.993 -129.001 C330.993 -97.001 324.326 -72.001 310.993 -54.001 L235.993 -54.001 C252.66 -82.001 260.993 -107.168 260.993 -129.501 C260.993 -151.834 253.326 -169.501 237.993 -182.501 C222.66 -195.501 200.66 -203.001 171.993 -205.001 L171.993 -266.001 C223.326 -264.668 262.659 -251.001 289.992 -225.001 C317.325 -199.001 330.993 -167.001 330.993 -129.001 L330.993 -129.001 Z " />
<glyph glyph-name="scedilla" unicode="&#x15f;" horiz-adv-x="433" d="M368 517 C333.333 532.333 288.666 540 233.999 540 C201.332 540 171.832 534.333 145.499 523 C119.166 511.667 98.166 494.834 82.499 472.501 C66.832 450.168 58.999 424.001 58.999 394.001 C58.999 377.334 61.666 361.834 66.999 347.501 C72.332 333.168 78.999 321.001 86.999 311.001 C94.999 301.001 105.166 291.501 117.499 282.501 C129.832 273.501 141.665 266.168 152.998 260.501 C164.331 254.834 177.331 249.001 191.998 243.001 C234.665 225.668 265.498 209.668 284.498 195.001 C303.498 180.334 312.998 160.667 312.998 136 C312.998 114.667 304.665 97.5 287.998 84.5 C271.331 71.5 246.664 65 213.997 65 C159.33 65 108.663 79 61.9961 107 L61.9961 27 C103.329 5 155.662 -6 218.995 -6 C274.995 -6 318.995 7.16699 350.995 33.5 C382.995 59.833 398.995 96 398.995 142 C398.995 158.667 396.328 174.167 390.995 188.5 C385.662 202.833 378.829 215.166 370.496 225.499 C362.163 235.832 351.33 245.665 337.997 254.998 C324.664 264.331 311.831 272.164 299.498 278.497 C287.165 284.83 272.332 291.663 254.999 298.996 C252.332 300.329 247.999 302.329 241.999 304.996 C224.666 312.329 211.833 318.162 203.5 322.495 C195.167 326.828 185.334 332.828 174.001 340.495 C162.668 348.162 154.668 356.662 150.001 365.995 C145.334 375.328 143.001 385.995 143.001 397.995 C143.001 417.995 151.334 434.662 168.001 447.995 C184.668 461.328 207.001 467.995 235.001 467.995 C289.668 467.995 334.001 457.995 368.001 437.995 L368 517 Z M293.001 -129.005 C293.001 -97.0049 286.334 -72.0049 273.001 -54.0049 L199.001 -54.0049 C214.334 -81.3379 222.001 -106.671 222.001 -130.004 C222.001 -152.004 214.501 -169.504 199.501 -182.504 C184.501 -195.504 162.668 -203.004 134.001 -205.004 L134.001 -266.004 C185.334 -264.671 224.667 -251.004 252 -225.004 C279.333 -199.004 293.001 -167.005 293.001 -129.005 L293.001 -129.005 Z " />
<glyph glyph-name="Scaron" unicode="&#x160;" horiz-adv-x="552" d="M453 685 C412.333 706.333 360.666 717 297.999 717 C231.999 717 177.499 700 134.499 666 C91.499 632 69.999 584.667 69.999 524 C69.999 507.333 71.999 491.5 75.999 476.5 C79.999 461.5 84.832 448.667 90.499 438 C96.166 427.333 104.499 416.5 115.499 405.5 C126.499 394.5 136.332 385.667 144.999 379 C153.666 372.333 165.666 364.833 180.999 356.5 C196.332 348.167 208.499 342 217.499 338 C226.499 334 239.332 328 255.999 320 C264.666 316.667 270.999 314 274.999 312 C318.332 292.667 350.499 274.167 371.499 256.5 C392.499 238.833 402.999 215.333 402.999 186 C402.999 149.333 390.332 121.166 364.999 101.499 C339.666 81.832 304.999 71.999 260.999 71.999 C226.332 71.999 192.165 77.166 158.498 87.499 C124.831 97.832 96.3311 111.999 72.998 129.999 L72.998 37.999 C124.331 7.99902 187.664 -7.00098 262.997 -7.00098 C330.33 -7.00098 385.33 9.99902 427.997 43.999 C470.664 77.999 491.997 125.999 491.997 187.999 C491.997 205.332 489.997 221.499 485.997 236.499 C481.997 251.499 477.164 264.499 471.497 275.499 C465.83 286.499 457.33 297.499 445.997 308.499 C434.664 319.499 424.664 328.332 415.997 334.999 C407.33 341.666 395.163 349.166 379.496 357.499 C363.829 365.832 351.662 371.999 342.995 375.999 C334.328 379.999 321.328 385.666 303.995 392.999 C287.995 400.332 276.995 405.332 270.995 407.999 C264.995 410.666 255.495 415.333 242.495 422 C229.495 428.667 220.162 434.167 214.495 438.5 C208.828 442.833 201.661 448.5 192.994 455.5 C184.327 462.5 178.16 469.333 174.493 476 C170.826 482.667 167.493 490.5 164.493 499.5 C161.493 508.5 159.993 518 159.993 528 C159.993 560.667 172.66 587 197.993 607 C223.326 627 257.326 637 299.993 637 C327.326 637 354.993 633.167 382.993 625.5 C410.993 617.833 434.326 607.666 452.993 594.999 L453 685 Z M316.993 764.999 L450.993 929.999 L366.993 929.999 L277.993 819.999 L186.993 929.999 L102.993 929.999 L236.993 764.999 L316.993 764.999 Z " />
<glyph glyph-name="scaron" unicode="&#x161;" horiz-adv-x="433" d="M368 517 C333.333 532.333 288.666 540 233.999 540 C201.332 540 171.832 534.333 145.499 523 C119.166 511.667 98.166 494.834 82.499 472.501 C66.832 450.168 58.999 424.001 58.999 394.001 C58.999 377.334 61.666 361.834 66.999 347.501 C72.332 333.168 78.999 321.001 86.999 311.001 C94.999 301.001 105.166 291.501 117.499 282.501 C129.832 273.501 141.665 266.168 152.998 260.501 C164.331 254.834 177.331 249.001 191.998 243.001 C234.665 225.668 265.498 209.668 284.498 195.001 C303.498 180.334 312.998 160.667 312.998 136 C312.998 114.667 304.665 97.5 287.998 84.5 C271.331 71.5 246.664 65 213.997 65 C159.33 65 108.663 79 61.9961 107 L61.9961 27 C103.329 5 155.662 -6 218.995 -6 C274.995 -6 318.995 7.16699 350.995 33.5 C382.995 59.833 398.995 96 398.995 142 C398.995 158.667 396.328 174.167 390.995 188.5 C385.662 202.833 378.829 215.166 370.496 225.499 C362.163 235.832 351.33 245.665 337.997 254.998 C324.664 264.331 311.831 272.164 299.498 278.497 C287.165 284.83 272.332 291.663 254.999 298.996 C252.332 300.329 247.999 302.329 241.999 304.996 C224.666 312.329 211.833 318.162 203.5 322.495 C195.167 326.828 185.334 332.828 174.001 340.495 C162.668 348.162 154.668 356.662 150.001 365.995 C145.334 375.328 143.001 385.995 143.001 397.995 C143.001 417.995 151.334 434.662 168.001 447.995 C184.668 461.328 207.001 467.995 235.001 467.995 C289.668 467.995 334.001 457.995 368.001 437.995 L368 517 Z M283.001 589.995 L418.001 754.995 L334.001 754.995 L245.001 644.995 L154.001 754.995 L70.001 754.995 L204.001 589.995 L283.001 589.995 Z " />
<glyph glyph-name="uni0162" unicode="&#x162;" horiz-adv-x="507" d="M111 -256 L179 -256 L297 -54 L200 -54 L111 -256 Z M488 711 L19 711 L19 636 L211 636 L211 0 L297 0 L297 636 L488 636 L488 711 Z " />
<glyph glyph-name="uni0163" unicode="&#x163;" horiz-adv-x="388" d="M60 -256 L128 -256 L246 -54 L148 -54 L60 -256 Z M192 468 L340 468 L340 535 L192 535 L192 667 L108 667 L108 535 L24 535 L24 468 L108 468 L108 157 C108 49 161 -5 267 -5 C296.333 -5 322.333 1 345 13 L345 93 C324.333 77 300 69 272 69 C218.667 69 192 97.333 192 154 L192 468 Z " />
<glyph glyph-name="Tcaron" unicode="&#x164;" horiz-adv-x="507" d="M295 766 L428 931 L344 931 L255 821 L165 931 L80 931 L214 766 L295 766 Z M488 711 L19 711 L19 636 L211 636 L211 0 L297 0 L297 636 L488 636 L488 711 Z " />
<glyph glyph-name="tcaron" unicode="&#x165;" horiz-adv-x="388" d="M440 801 L344 801 L254 598 L322 598 L440 801 Z M192 468 L340 468 L340 535 L192 535 L192 667 L108 667 L108 535 L24 535 L24 468 L108 468 L108 157 C108 49 161 -5 267 -5 C296.333 -5 322.333 1 345 13 L345 93 C324.333 77 300 69 272 69 C218.667 69 192 97.333 192 154 L192 468 Z " />
<glyph glyph-name="Umacron" unicode="&#x16a;" horiz-adv-x="679" d="M515 268 C515 137.333 456.333 72 339 72 C286.333 72 244.333 87.333 213 118 C181.667 148.667 166 197 166 263 L166 711 L80 711 L80 262 C80 174 102.833 107 148.5 61 C194.167 15 257.667 -8 339 -8 C421.667 -8 485.834 15.5 531.501 62.5 C577.168 109.5 600.001 178.667 600.001 270 L600.001 711 L515.001 711 L515 268 Z M492.001 820 L492.001 879 L195.001 879 L195.001 820 L492.001 820 Z " />
<glyph glyph-name="umacron" unicode="&#x16b;" horiz-adv-x="568" d="M431 702 L133 702 L133 644 L431 644 L431 702 Z M409 535 L409 240 C409 187.333 395.833 145.666 369.5 114.999 C343.167 84.332 308 68.999 264 68.999 C230 68.999 203.167 79.166 183.5 99.499 C163.833 119.832 154 148.999 154 186.999 L154 534.999 L71 534.999 L71 166.999 C71 114.332 86.333 72.332 117 40.999 C147.667 9.66602 189 -6.00098 241 -6.00098 C324.333 -6.00098 380.333 26.999 409 92.999 L409 -0.000976562 L492 -0.000976562 L492 534.999 L409 535 Z " />
<glyph glyph-name="Uring" unicode="&#x16e;" horiz-adv-x="679" d="M231 867 C231 837 242 810.833 264 788.5 C286 766.167 312.333 755 343 755 C355 755 366.667 757 378 761 C389.333 765 399.666 770.5 408.999 777.5 C418.332 784.5 426.332 792.5 432.999 801.5 C439.666 810.5 444.833 820.667 448.5 832 C452.167 843.333 454 855 454 867 C454 898.333 443.167 925 421.5 947 C399.833 969 373.666 980 342.999 980 C312.332 980 285.999 969 263.999 947 C241.999 925 231 898.333 231 867 L231 867 Z M286.999 868 C286.999 884 292.332 897.5 302.999 908.5 C313.666 919.5 326.999 925 342.999 925 C358.999 925 372.499 919.5 383.499 908.5 C394.499 897.5 399.999 884 399.999 868 C399.999 852.667 394.499 839.334 383.499 828.001 C372.499 816.668 358.999 811.001 342.999 811.001 C326.999 811.001 313.666 816.668 302.999 828.001 C292.332 839.334 286.999 852.667 286.999 868 L286.999 868 Z M514.999 268 C514.999 137.333 456.332 72 338.999 72 C286.332 72 244.332 87.333 212.999 118 C181.666 148.667 165.999 197 165.999 263 L165.999 711 L79.999 711 L79.999 262 C79.999 174 102.832 107 148.499 61 C194.166 15 257.666 -8 338.999 -8 C421.666 -8 485.833 15.5 531.5 62.5 C577.167 109.5 600 178.667 600 270 L600 711 L515 711 L514.999 268 Z " />
<glyph glyph-name="uring" unicode="&#x16f;" horiz-adv-x="568" d="M290 750 C306 750 319.5 744.5 330.5 733.5 C341.5 722.5 347 709 347 693 C347 677.667 341.5 664.334 330.5 653.001 C319.5 641.668 306.167 636.001 290.5 636.001 C274.833 636.001 261.5 641.668 250.5 653.001 C239.5 664.334 234 677.667 234 693 C234 703.667 236.5 713.334 241.5 722.001 C246.5 730.668 253.333 737.501 262 742.501 C270.667 747.501 280 750 290 750 L290 750 Z M290 580.001 C321.333 580.001 347.833 591.001 369.5 613.001 C391.167 635.001 402 661.334 402 692.001 C402 723.334 391.167 749.834 369.5 771.501 C347.833 793.168 321.5 804.001 290.5 804.001 C259.5 804.001 233 793.168 211 771.501 C189 749.834 178 723.334 178 692.001 C178 672.001 183 653.334 193 636.001 C203 618.668 216.667 605.001 234 595.001 C251.333 585.001 270 580.001 290 580.001 L290 580.001 Z M409 535.001 L409 240.001 C409 187.334 395.833 145.667 369.5 115 C343.167 84.333 308 69 264 69 C230 69 203.167 79.167 183.5 99.5 C163.833 119.833 154 149 154 187 L154 535 L71 535 L71 167 C71 114.333 86.333 72.333 117 41 C147.667 9.66699 189 -6 241 -6 C324.333 -6 380.333 27 409 93 L409 0 L492 0 L492 535 L409 535.001 Z " />
<glyph glyph-name="Uhungarumlaut" unicode="&#x170;" horiz-adv-x="679" d="M515 268 C515 137.333 456.333 72 339 72 C286.333 72 244.333 87.333 213 118 C181.667 148.667 166 197 166 263 L166 711 L80 711 L80 262 C80 174 102.833 107 148.5 61 C194.167 15 257.667 -8 339 -8 C421.667 -8 485.834 15.5 531.501 62.5 C577.168 109.5 600.001 178.667 600.001 270 L600.001 711 L515.001 711 L515 268 Z M387.001 766 L451.001 766 L592.001 931 L493.001 931 L387.001 766 Z M222.001 766 L287.001 766 L421.001 931 L323.001 931 L222.001 766 Z " />
<glyph glyph-name="uhungarumlaut" unicode="&#x171;" horiz-adv-x="568" d="M400 590 L541 755 L442 755 L336 590 L400 590 Z M369 755 L272 755 L171 590 L235 590 L369 755 Z M409 240 C409 187.333 395.833 145.666 369.5 114.999 C343.167 84.332 308 68.999 264 68.999 C230 68.999 203.167 79.166 183.5 99.499 C163.833 119.832 154 148.999 154 186.999 L154 534.999 L71 534.999 L71 166.999 C71 114.332 86.333 72.332 117 40.999 C147.667 9.66602 189 -6.00098 241 -6.00098 C324.333 -6.00098 380.333 26.999 409 92.999 L409 -0.000976562 L492 -0.000976562 L492 534.999 L409 534.999 L409 240 Z " />
<glyph glyph-name="Uogonek" unicode="&#x172;" horiz-adv-x="679" d="M515 711 L515 268 C515 137.333 456.333 72 339 72 C286.333 72 244.333 87.333 213 118 C181.667 148.667 166 197 166 263 L166 711 L80 711 L80 262 C80 178 100.667 113.167 142 67.5 C183.333 21.833 241 -3 315 -7 C273 -45.667 252 -87.334 252 -132.001 C252 -166.001 263.333 -193.834 286 -215.501 C308.667 -237.168 340.334 -248.001 381.001 -248.001 C412.334 -248.001 440.334 -241.334 465.001 -228.001 L465.001 -164.001 C444.334 -178.668 420.001 -186.001 392.001 -186.001 C371.334 -186.001 354.667 -180.834 342 -170.501 C329.333 -160.168 323 -145.001 323 -125.001 C323 -99.668 334.167 -75.668 356.5 -53.001 C378.833 -30.334 407.333 -10.334 442 6.99902 C492.667 23.666 531.667 54.166 559 98.499 C586.333 142.832 600 199.999 600 269.999 L600 710.999 L515 711 Z " />
<glyph glyph-name="uogonek" unicode="&#x173;" horiz-adv-x="568" d="M492 535 L409 535 L409 240 C409 187.333 395.833 145.666 369.5 114.999 C343.167 84.332 308 68.999 264 68.999 C230 68.999 203.167 79.166 183.5 99.499 C163.833 119.832 154 148.999 154 186.999 L154 534.999 L71 534.999 L71 166.999 C71 114.332 86.333 72.332 117 40.999 C147.667 9.66602 189 -6.00098 241 -6.00098 C324.333 -6.00098 380.333 26.999 409 92.999 L409 15.999 C377.667 -2.66797 352 -25.168 332 -51.501 C312 -77.834 302 -107.001 302 -139.001 C302 -173.001 313.167 -200.834 335.5 -222.501 C357.833 -244.168 389.666 -255.001 430.999 -255.001 C462.332 -255.001 489.999 -248.334 513.999 -235.001 L513.999 -171.001 C493.999 -186.334 469.999 -194.001 441.999 -194.001 C427.999 -194.001 415.832 -191.668 405.499 -187.001 C395.166 -182.334 387.166 -175.334 381.499 -166.001 C375.832 -156.668 372.999 -145.335 372.999 -132.002 C372.999 -106.669 383.999 -82.6689 405.999 -60.002 C427.999 -37.335 456.666 -17.335 491.999 -0.00195312 L492 535 Z " />
<glyph glyph-name="Ydieresis" unicode="&#x178;" horiz-adv-x="625" d="M420 794 C436 794 449.167 799.167 459.5 809.5 C469.833 819.833 475 833 475 849 C475 859 472.667 868.167 468 876.5 C463.333 884.833 456.833 891.333 448.5 896 C440.167 900.667 430.667 903 420 903 C404.667 903 391.834 897.833 381.501 887.5 C371.168 877.167 366.001 864.334 366.001 849.001 C366.001 833.668 371.168 820.668 381.501 810.001 C391.834 799.334 404.667 794 420 794 L420 794 Z M208 794.001 C223.333 794.001 236.166 799.168 246.499 809.501 C256.832 819.834 261.999 832.834 261.999 848.501 C261.999 864.168 256.832 877.168 246.499 887.501 C236.166 897.834 223.333 903.001 208 903.001 C192 903.001 178.667 897.834 168 887.501 C157.333 877.168 152 864.335 152 849.002 C152 838.335 154.5 828.835 159.5 820.502 C164.5 812.169 171.167 805.669 179.5 801.002 C187.833 796.335 197.333 794.001 208 794.001 L208 794.001 Z M598 711.002 L499 711.002 L445 607.002 C362.333 448.335 317.666 360.002 310.999 342.002 L308.999 346.002 C308.332 348.669 305.332 355.669 299.999 367.002 C294.666 378.335 287.833 392.835 279.5 410.502 C271.167 428.169 258.334 454.169 241.001 488.502 C223.668 522.835 203.335 562.335 180.002 607.002 L127.002 711.002 L28.002 711.002 L269.002 264.002 L269.002 0.00195312 L354.002 0.00195312 L354.002 265.002 L598 711.002 Z " />
<glyph glyph-name="Zacute" unicode="&#x179;" horiz-adv-x="599" d="M277 766 L350 766 L481 931 L382 931 L277 766 Z M529 711 L60 711 L60 639 L431 639 L55 71 L55 0 L545 0 L545 73 L154 73 L529 642 L529 711 Z " />
<glyph glyph-name="zacute" unicode="&#x17a;" horiz-adv-x="476" d="M211 590 L283 590 L414 755 L315 755 L211 590 Z M416 535 L57 535 L57 460 L317 460 L46 65 L46 0 L432 0 L432 75 L142 75 L416 474 L416 535 Z " />
<glyph glyph-name="Zdotaccent" unicode="&#x17b;" horiz-adv-x="599" d="M529 711 L60 711 L60 639 L431 639 L55 71 L55 0 L545 0 L545 73 L154 73 L529 642 L529 711 Z M253 851.5 C253 841.167 255.333 832 260 824 C264.667 816 271.167 809.5 279.5 804.5 C287.833 799.5 297.333 797 308 797 C323.333 797 336.166 802.333 346.499 813 C356.832 823.667 361.999 836.667 361.999 852 C361.999 867.333 356.832 880.166 346.499 890.499 C336.166 900.832 323.333 905.999 308 905.999 C297.333 905.999 287.833 903.666 279.5 898.999 C271.167 894.332 264.667 887.832 260 879.499 C255.333 871.166 253 861.833 253 851.5 L253 851.5 Z " />
<glyph glyph-name="zdotaccent" unicode="&#x17c;" horiz-adv-x="476" d="M416 535 L57 535 L57 460 L317 460 L46 65 L46 0 L432 0 L432 75 L142 75 L416 474 L416 535 Z M202 672.5 C202 656.833 207.167 643.833 217.5 633.5 C227.833 623.167 240.666 618 255.999 618 C271.999 618 284.999 623.167 294.999 633.5 C304.999 643.833 309.999 656.833 309.999 672.5 C309.999 688.167 304.999 701.167 294.999 711.5 C284.999 721.833 271.999 727 255.999 727 C240.666 727 227.833 721.833 217.5 711.5 C207.167 701.167 202 688.167 202 672.5 L202 672.5 Z " />
<glyph glyph-name="Zcaron" unicode="&#x17d;" horiz-adv-x="599" d="M529 711 L60 711 L60 639 L431 639 L55 71 L55 0 L545 0 L545 73 L154 73 L529 642 L529 711 Z M339 766 L473 931 L388 931 L300 821 L209 931 L125 931 L259 766 L339 766 Z " />
<glyph glyph-name="zcaron" unicode="&#x17e;" horiz-adv-x="476" d="M416 535 L57 535 L57 460 L317 460 L46 65 L46 0 L432 0 L432 75 L142 75 L416 474 L416 535 Z M296 590 L430 755 L345 755 L256 645 L166 755 L81 755 L215 590 L296 590 Z " />
<glyph glyph-name="florin" unicode="&#x192;" horiz-adv-x="413" d="M171 391 L57 391 L57 323 L160 323 L91 -76 C83.667 -116.667 72.167 -146.834 56.5 -166.501 C40.833 -186.168 20 -196.001 -6 -196.001 C-30.667 -196.001 -52 -192.001 -70 -184.001 L-70 -261.001 C-52 -267.668 -28 -271.001 2 -271.001 C50.667 -271.001 88.667 -255.334 116 -224.001 C143.333 -192.668 162 -146.001 172 -84.001 L243 322.999 L358 322.999 L358 390.999 L254 390.999 L277 522.999 C290.333 603.666 323.333 643.999 376 643.999 C395.333 643.999 415.333 639.999 436 631.999 L436 708.999 C418 714.999 394.667 717.999 366 717.999 C332.667 717.999 304.334 710.499 281.001 695.499 C257.668 680.499 239.168 659.499 225.501 632.499 C211.834 605.499 201.667 571.666 195 530.999 L171 391 Z " />
</font>
</svg>
