<?xml version="1.0" standalone="no"?>
<!DOCTYPE svg PUBLIC "-//W3C//DTD SVG 1.1//EN" "http://www.w3.org/Graphics/SVG/1.1/DTD/svg11.dtd" >
<svg xmlns="http://www.w3.org/2000/svg" xmlns:xlink="http://www.w3.org/1999/xlink" version="1.1">
<metadata>
Created by FontForge 20190801 at Tue Mar 28 12:10:51 2017
 By Unknown
Copyright (c) 2014 Indian Type Foundry (info@indiantypefoundry.com); Copyright (c) 2017 Cristiano Sobral (cssobral2013@gmail.com)
</metadata>
<defs>
<font id="Calcutta-Bold" horiz-adv-x="610" >
  <font-face 
    font-family="Calcutta"
    font-weight="700"
    font-stretch="normal"
    units-per-em="1024"
    panose-1="2 0 0 0 0 0 0 0 0 0"
    ascent="819"
    descent="-205"
    x-height="534.997"
    cap-height="711"
    bbox="-186 -282.001 1443 1036"
    underline-thickness="51"
    underline-position="-352"
    unicode-range="U+000D-25FC"
  />
<missing-glyph horiz-adv-x="374" 
d="M34 0v682h272v-682h-272zM68 34h204v614h-204v-614z" />
    <glyph glyph-name=".notdef" horiz-adv-x="374" 
d="M34 0v682h272v-682h-272zM68 34h204v614h-204v-614z" />
    <glyph glyph-name="glyph3" horiz-adv-x="0" 
 />
    <glyph glyph-name="glyph3" horiz-adv-x="0" 
 />
    <glyph glyph-name="uni000D" unicode="&#xd;" horiz-adv-x="0" 
 />
    <glyph glyph-name="space" unicode=" " horiz-adv-x="263" 
 />
    <glyph glyph-name="exclam" unicode="!" horiz-adv-x="303" 
d="M79 249v462h147v-462h-147zM55 87.5c0 27 9.16699 49.667 27.5 68s41 27.5 68 27.5s49.833 -9.16699 68.5 -27.5s28 -41 28 -68s-9.33301 -49.667 -28 -68s-41.5 -27.5 -68.5 -27.5s-49.667 9.16699 -68 27.5s-27.5 41 -27.5 68z" />
    <glyph glyph-name="quotedbl" unicode="&#x22;" horiz-adv-x="407" 
d="M42 443v275h129v-275h-129zM237 443v275h129v-275h-129z" />
    <glyph glyph-name="numbersign" unicode="#" horiz-adv-x="798" 
d="M452 279l30 143h-143l-31 -143h144zM751 422h-138l-31 -143h133v-116h-157l-35 -163h-130l34 163h-144l-34 -163h-130l33 163h-105v116h131l30 143h-125v122h151l35 166h131l-35 -166h144l34 166h131l-34 -166h111v-122z" />
    <glyph glyph-name="dollar" unicode="$" horiz-adv-x="541" 
d="M474 679l-0.00585938 -152.004c-56 33.333 -115 50 -177 50c-27.333 0 -48.333 -5.5 -63 -16.5s-22 -25.5 -22 -43.5s8.83301 -33.667 26.5 -47s43.834 -28 78.501 -44c22 -9.33301 40.167 -17.666 54.5 -24.999s30.833 -17.666 49.5 -30.999s33.334 -27 44.001 -41
s20 -31.667 28 -53s12 -44.333 12 -69c0 -53.333 -17 -98.666 -51 -135.999s-80.333 -61.666 -139 -72.999v-123h-128v120c-58.667 5.33301 -107 19 -145 41v164c64.667 -46.667 133 -70 205 -70c16 0 30.5 3 43.5 9s23.333 14.333 31 25s11.5 23 11.5 37
c0 7.33301 -1.16699 14 -3.5 20s-6.16602 11.833 -11.499 17.5s-10.666 10.5 -15.999 14.5s-13.166 8.66699 -23.499 14s-19.166 9.66602 -26.499 12.999s-17.833 8 -31.5 14s-24.834 11 -33.501 15c-21.333 10 -40 20.333 -56 31s-31.667 23.834 -47 39.501
s-27.166 34.667 -35.499 57s-12.5 47.166 -12.5 74.499c0 54 17.833 99 53.5 135s85.5 58 149.5 66v121h129v-123c34.667 -5.33301 70 -15.666 106 -30.999z" />
    <glyph glyph-name="percent" unicode="%" horiz-adv-x="1025" 
d="M239 -1l401 747h139l-401 -747h-139zM578 191.5c0 55.667 19.5 102.999 58.5 141.999s86.5 58.5 142.5 58.5c36 0 69.333 -8.83301 100 -26.5s54.834 -42 72.501 -73s26.5 -64.5 26.5 -100.5c0 -56 -19.333 -103.333 -58 -142s-85.834 -58 -141.501 -58
s-103 19.333 -142 58s-58.5 85.834 -58.5 141.501zM47 560.999c0 56 19.666 103.334 58.999 142.001s86.833 58 142.5 58s102.834 -19.333 141.501 -58s58 -85.834 58 -141.501s-19.333 -103.167 -58 -142.5s-86 -59 -142 -59c-36 0 -69.5 9 -100.5 27
s-55.5 42.5 -73.5 73.5s-27 64.5 -27 100.5zM170.999 561.5c0 -21 7.66699 -39.167 23 -54.5s33.5 -23 54.5 -23s38.833 7.66699 53.5 23s22 33.5 22 54.5s-7.33301 39.167 -22 54.5s-32.5 23 -53.5 23s-39.167 -7.66699 -54.5 -23s-23 -33.5 -23 -54.5zM700.999 191.5
c0 -21 7.66699 -39 23 -54s33.5 -22.5 54.5 -22.5s39 7.5 54 22.5s22.5 33 22.5 54s-7.5 39.167 -22.5 54.5s-33 23 -54 23s-39.167 -7.66699 -54.5 -23s-23 -33.5 -23 -54.5z" />
    <glyph glyph-name="ampersand" unicode="&#x26;" horiz-adv-x="781" 
d="M448 137l-133.998 131l-20 20c-32.667 -11.333 -54.834 -23.833 -66.501 -37.5s-17.5 -30.5 -17.5 -50.5c0 -24 13.667 -43.667 41 -59s61.666 -23 102.999 -23c32.667 0 64 6.33301 94 19zM357.002 600c-12.667 0 -24.167 -2.33203 -34.5 -6.99902
s-18.833 -12.334 -25.5 -23.001s-10 -23.667 -10 -39c0 -31.333 24 -71 72 -119c53.333 29.333 80 65 80 107c0 26 -7.33301 46 -22 60s-34.667 21 -60 21zM778.002 0.000976562l-189.997 0.000976562l-41 41c-56.667 -32.667 -121.334 -49 -194.001 -49
c-92.667 0 -165.834 19.5 -219.501 58.5s-80.5 86.833 -80.5 143.5c0 28 4.66699 53 14 75s25.166 41.833 47.499 59.5s51.833 32.5 88.5 44.5c-48 53.333 -72 105.333 -72 156c0 63.333 21.333 112 64 146s96.667 51 162 51c48.667 0 90.834 -7.83301 126.501 -23.5
s63 -38.334 82 -68.001s28.5 -65.5 28.5 -107.5c0 -40.667 -11.833 -77.167 -35.5 -109.5s-61.834 -61.833 -114.501 -88.5l103 -101c12.667 29.333 19 59 19 89h139c0 -70.667 -19.667 -133 -59 -187z" />
    <glyph glyph-name="quotesingle" unicode="'" horiz-adv-x="212" 
d="M42 443v275h129v-275h-129z" />
    <glyph glyph-name="parenleft" unicode="(" horiz-adv-x="356" 
d="M378 -207l-164.001 0.000976562c-114.667 142 -172 302 -172 480c0 182 55.333 339.667 166 473h159c-51.333 -62.667 -91.166 -138.834 -119.499 -228.501s-42.5 -172.5 -42.5 -248.5c0 -74.667 14.667 -155.5 44 -242.5s72.333 -164.833 129 -233.5z" />
    <glyph glyph-name="parenright" unicode=")" horiz-adv-x="356" 
d="M148 746c110.667 -133.333 166 -291.001 166 -473.001c0 -178 -57.333 -338 -172 -480h-163c56.667 68.667 99.5 146.5 128.5 233.5s43.5 167.833 43.5 242.5c0 76 -14.167 158.833 -42.5 248.5s-67.833 165.834 -118.5 228.501h158z" />
    <glyph glyph-name="asterisk" unicode="*" horiz-adv-x="535" 
d="M357 451l-2.00098 -0.000976562c15.333 -11.333 28 -24 38 -38l61 -84l-101 -73l-59 84c-12 16 -20 31 -24 45c-6 -14.667 -14.333 -29.334 -25 -44.001l-63 -85l-100 75l61 82c10.667 14 23 26.333 37 37c-16.667 0 -33.667 3 -51 9l-99 33l39 119l98 -32
c18.667 -6.66699 34.334 -14.667 47.001 -24c-4.66699 16.667 -7 34.334 -7 53.001v103h125v-103c0 -16 -3 -33.667 -9 -53c12 8.66699 27.667 16.334 47 23.001l100 32l38 -119l-98 -32c-17.333 -5.33301 -35 -8 -53 -8z" />
    <glyph glyph-name="plus" unicode="+" horiz-adv-x="621" 
d="M574 426v-137h-193v-190h-142v190h-192v137h192v191h142v-191h193z" />
    <glyph glyph-name="comma" unicode="," horiz-adv-x="310" 
d="M-7 -134l106 275h170l-143 -275h-133z" />
    <glyph glyph-name="hyphen" unicode="-" horiz-adv-x="375" 
d="M47 213v127h282v-127h-282z" />
    <glyph glyph-name="period" unicode="." horiz-adv-x="271" 
d="M42 85.5c0 25.667 9.16699 47.667 27.5 66s40.5 27.5 66.5 27.5s48.167 -9.16699 66.5 -27.5s27.5 -40.333 27.5 -66s-9.16699 -47.667 -27.5 -66s-40.5 -27.5 -66.5 -27.5s-48.167 9.16699 -66.5 27.5s-27.5 40.333 -27.5 66z" />
    <glyph glyph-name="slash" unicode="/" horiz-adv-x="489" 
d="M-2 -108l379 854h160l-379 -854h-160z" />
    <glyph glyph-name="zero" unicode="0" horiz-adv-x="576" 
d="M37 348c0 110 21.168 197 63.501 261s105 96 188 96s145.667 -32 188 -96s63.5 -151 63.5 -261c0 -108.667 -21.333 -195.167 -64 -259.5s-105.334 -96.5 -188.001 -96.5s-145.167 32.167 -187.5 96.5s-63.5 150.833 -63.5 259.5zM194.001 348.5
c0 -146.333 31.5 -219.5 94.5 -219.5s94.5 73.167 94.5 219.5s-31.5 219.5 -94.5 219.5s-94.5 -73.167 -94.5 -219.5z" />
    <glyph glyph-name="one" unicode="1" horiz-adv-x="400" 
d="M10 420v157l195 113h133v-690h-154v524z" />
    <glyph glyph-name="two" unicode="2" horiz-adv-x="528" 
d="M247 131l244.003 -0.00390625v-131h-459v119c47.333 32.667 91.666 67.5 132.999 104.5s77.333 77.333 108 121s46 81.834 46 114.501c0 30 -8.66699 53.667 -26 71s-44 26 -80 26c-28.667 0 -58.334 -6.33301 -89.001 -19s-57.667 -28.667 -81 -48v150
c23.333 16.667 53.666 30.834 90.999 42.501s74 17.5 110 17.5c46.667 0 87.667 -8.16699 123 -24.5s62.833 -40.666 82.5 -72.999s29.5 -71.166 29.5 -116.499c0 -121.333 -77.333 -239.333 -232 -354z" />
    <glyph glyph-name="three" unicode="3" horiz-adv-x="508" 
d="M59 517l0.000976562 142.999c53.333 26 105.666 39 156.999 39c74.667 0 133.667 -17.667 177 -53s65 -81.333 65 -138c0 -78.667 -35.333 -132.667 -106 -162c38.667 -8.66699 68.5 -26.5 89.5 -53.5s31.5 -61.167 31.5 -102.5c0 -59.333 -22.333 -106.666 -67 -141.999
s-107.334 -53 -188.001 -53c-76 0 -138 12 -186 36v147c54.667 -30.667 112.667 -46 174 -46c23.333 0 43.333 3.5 60 10.5s29 16.333 37 28s12 24.834 12 39.501c0 51.333 -47.333 77 -142 77h-37v126h37c37.333 0 68 6.33301 92 19s36 31.667 36 57
c0 16.667 -4.16699 30.667 -12.5 42s-19.333 19.333 -33 24s-30.167 7 -49.5 7c-24 0 -49.667 -4.33301 -77 -13s-50.666 -19.334 -69.999 -32.001z" />
    <glyph glyph-name="four" unicode="4" horiz-adv-x="592" 
d="M182 277h153v312zM572 277v-131h-85v-146h-152v146h-303v131l211 415h244v-415h85z" />
    <glyph glyph-name="five" unicode="5" horiz-adv-x="527" 
d="M216 561l0.00292969 -116.999c15.333 2 31 3 47 3c74.667 0 132 -19.333 172 -58s60 -91.334 60 -158.001c0 -47.333 -10 -88.5 -30 -123.5s-50.833 -62.667 -92.5 -83s-91.834 -30.5 -150.501 -30.5c-76.667 0 -138.334 12.333 -185.001 37v145
c46.667 -29.333 100 -44 160 -44c47.333 0 82.833 9 106.5 27s35.5 42.667 35.5 74c0 25.333 -9.83301 45.333 -29.5 60s-48.834 22 -87.501 22c-51.333 0 -103 -11.667 -155 -35v412h386v-131h-237z" />
    <glyph glyph-name="six" unicode="6" horiz-adv-x="565" 
d="M296 116c26.667 0 47.835 9.5 63.502 28.5s23.5 44.167 23.5 75.5c0 28.667 -7.66699 51.667 -23 69s-36.333 26 -63 26c-38.667 0 -72.334 -15 -101.001 -45c3.33301 -54 14.166 -93.167 32.499 -117.5s40.833 -36.5 67.5 -36.5zM486.001 686l-0.00195312 -142.999
c-29.333 14.667 -61.333 22 -96 22c-50 0 -91 -15.333 -123 -46s-53.333 -71.334 -64 -122.001c38 32 83.333 48 136 48c60.667 0 109.334 -20 146.001 -60s55 -93.667 55 -161c0 -70 -21.833 -128.333 -65.5 -175s-103.5 -70 -179.5 -70
c-85.333 0 -149.666 30.333 -192.999 91s-65 142.334 -65 245.001c0 117.333 32.167 211.166 96.5 281.499s145.833 105.5 244.5 105.5c36.667 0 72.667 -5.33301 108 -16z" />
    <glyph glyph-name="seven" unicode="7" horiz-adv-x="505" 
d="M21 691h464v-131l-268 -560h-162l268 560h-302v131z" />
    <glyph glyph-name="eight" unicode="8" horiz-adv-x="574" 
d="M286 112c32.667 0 57.167 7.83203 73.5 23.499s24.5 34.834 24.5 57.501c0 24.667 -8.5 45.167 -25.5 61.5s-41.167 24.5 -72.5 24.5c-21.333 0 -39.5 -4.5 -54.5 -13.5s-25.5 -19.833 -31.5 -32.5s-9 -26.667 -9 -42c0 -22.667 7.66699 -41.5 23 -56.5
s39.333 -22.5 72 -22.5zM284 579.999c-28 0 -48.5 -7.83203 -61.5 -23.499s-19.5 -34.834 -19.5 -57.501c0 -27.333 8.16699 -48.333 24.5 -63s36.5 -22 60.5 -22s44 7.33301 60 22s24 35.667 24 63c0 24 -6.16699 43.5 -18.5 58.5s-35.5 22.5 -69.5 22.5zM440 351
c65.333 -30.667 97.999 -83.666 97.999 -158.999c0 -60.667 -23.5 -109.5 -70.5 -146.5s-108.167 -55.5 -183.5 -55.5c-76 0 -136.167 17.5 -180.5 52.5s-66.5 82.833 -66.5 143.5c0 74.667 33.333 128.667 100 162c-60 35.333 -90 84.666 -90 147.999
c0 64.667 22.333 115.167 67 151.5s101.334 54.5 170.001 54.5c72 0 130.333 -17.167 175 -51.5s67 -85.833 67 -154.5c0 -30.667 -7.66699 -58.5 -23 -83.5s-36.333 -45.5 -63 -61.5z" />
    <glyph glyph-name="nine" unicode="9" horiz-adv-x="561" 
d="M268 365c23.333 0 42.667 3.83301 58 11.5s30 19.5 44 35.5c-3.33301 36 -10.166 65.667 -20.499 89s-22.166 39.333 -35.499 48s-28.333 13 -45 13c-28 0 -50.167 -8.83301 -66.5 -26.5s-24.5 -42.167 -24.5 -73.5c0 -13.333 2.16699 -26 6.5 -38
s10.166 -22.333 17.499 -31s16.666 -15.5 27.999 -20.5s24 -7.5 38 -7.5zM71.001 11l-0.000976562 147.001c38.667 -18 74.667 -27 108 -27c54.667 0 97.334 12.5 128.001 37.5s50.334 64.167 59.001 117.5c-31.333 -30.667 -77 -46 -137 -46
c-62 0 -112.167 19.833 -150.5 59.5s-57.5 92.5 -57.5 158.5c0 69.333 21.667 126.833 65 172.5s102 68.5 176 68.5c82 0 146.333 -29.667 193 -89s70 -140.333 70 -243c0 -64.667 -8.16699 -121.334 -24.5 -170.001s-39.5 -87.667 -69.5 -117s-64.667 -51.333 -104 -66
s-83 -22 -131 -22c-46.667 0 -88.334 6.33301 -125.001 19z" />
    <glyph glyph-name="colon" unicode=":" horiz-adv-x="300" 
d="M58 441.5c0 25.667 9 47.667 27 66s39.833 27.5 65.5 27.5s47.667 -9.16699 66 -27.5s27.5 -40.333 27.5 -66s-9.16699 -47.5 -27.5 -65.5s-40.333 -27 -66 -27s-47.5 9 -65.5 27s-27 39.833 -27 65.5zM58 92.5c0 25.667 9 47.5 27 65.5s39.833 27 65.5 27
s47.667 -9 66 -27s27.5 -39.833 27.5 -65.5s-9.16699 -47.5 -27.5 -65.5s-40.333 -27 -66 -27s-47.5 9 -65.5 27s-27 39.833 -27 65.5z" />
    <glyph glyph-name="semicolon" unicode=";" horiz-adv-x="310" 
d="M77 441.5c0 25.667 9 47.667 27 66s40 27.5 66 27.5s48 -9.16699 66 -27.5s27 -40.333 27 -66s-9 -47.5 -27 -65.5s-40 -27 -66 -27s-48 9 -66 27s-27 39.833 -27 65.5zM-7 -134l106 275h170l-143 -275h-133z" />
    <glyph glyph-name="less" unicode="&#x3c;" horiz-adv-x="621" 
d="M47 286v146l527 187v-151l-373 -110l373 -108v-152z" />
    <glyph glyph-name="equal" unicode="=" horiz-adv-x="621" 
d="M47 415v127h527v-127h-527zM47 175v127h527v-127h-527z" />
    <glyph glyph-name="greater" unicode="&#x3e;" horiz-adv-x="621" 
d="M574 432v-146l-527 -188v152l374 108l-374 110v151z" />
    <glyph glyph-name="question" unicode="?" horiz-adv-x="482" 
d="M69 545l-0.00390625 144.999c42.667 19.333 96.334 29 161.001 29c66 0 119.333 -17.333 160 -52s61 -81.667 61 -141c0 -21.333 -3 -41.5 -9 -60.5s-14 -35.167 -24 -48.5s-21 -25.333 -33 -36s-24.667 -19.167 -38 -25.5s-25.666 -11.166 -36.999 -14.499
s-21.666 -5 -30.999 -5l-3 -87h-140l-3 159c57.333 0 98.833 8.5 124.5 25.5s38.5 41.833 38.5 74.5c0 25.333 -7.66699 45.333 -23 60s-37.666 22 -66.999 22c-46 0 -91.667 -15 -137 -45zM107.996 87.999c0 12.667 2.5 25.001 7.5 37.001s11.833 22.167 20.5 30.5
s19 15 31 20s24.667 7.5 38 7.5c26.667 0 49.334 -9.16699 68.001 -27.5s28 -41 28 -68s-9.33301 -49.667 -28 -68s-41.334 -27.5 -68.001 -27.5s-49.5 9.16699 -68.5 27.5s-28.5 41.166 -28.5 68.499z" />
    <glyph glyph-name="at" unicode="@" horiz-adv-x="1030" 
d="M502 111c23.333 0 45.1689 8.99707 65.502 26.9971s33.833 43.667 40.5 77c0 4.66699 0.166992 11.834 0.5 21.501s0.5 16.834 0.5 21.501c-2.66699 22 -8.83398 40.833 -18.501 56.5s-20.834 26.834 -33.501 33.501s-26.667 10 -42 10c-18.667 0 -36 -5 -52 -15
s-29.167 -25.833 -39.5 -47.5s-15.5 -47.5 -15.5 -77.5c0 -32 9.16699 -57.833 27.5 -77.5s40.5 -29.5 66.5 -29.5zM705.003 -55.0029l-5.00098 -128.999c-64 -29.333 -133 -44 -207 -44c-70.667 0 -135 12 -193 36s-105.5 56.333 -142.5 97s-65.5 87.167 -85.5 139.5
s-30 107.833 -30 166.5c0 68 13.5 132.833 40.5 194.5s63.167 114.5 108.5 158.5s99 79 161 105s127 39 195 39c58.667 0 114.834 -9.66699 168.501 -29s101.167 -46.333 142.5 -81s74.333 -78.5 99 -131.5s37 -110.833 37 -173.5c0 -55.333 -9.66699 -105.5 -29 -150.5
s-45.333 -80 -78 -105s-68.334 -37.5 -107.001 -37.5c-43.333 0 -78.5 10.667 -105.5 32s-45.833 49 -56.5 83c-14.667 -37.333 -36.167 -65.666 -64.5 -84.999s-60.5 -29 -96.5 -29c-56.667 0 -101.5 21.5 -134.5 64.5s-49.5 96.167 -49.5 159.5
c0 72.667 21.333 131.5 64 176.5s93.334 67.5 152.001 67.5c56.667 0 99 -26 127 -78c2.66699 36 4.33398 61.333 5.00098 76h123l-1 -22c-8.66699 -126.667 -13 -197.334 -13 -212.001c0 -76 18 -114 54 -114c24.667 0 44.667 14.5 60 43.5s23 68.5 23 118.5
c0 34.667 -3.83301 66.5 -11.5 95.5s-18.667 54.5 -33 76.5s-31.5 41.333 -51.5 58s-42.167 30.167 -66.5 40.5s-50 18.166 -77 23.499s-55.5 8 -85.5 8c-54.667 0 -105.167 -10.667 -151.5 -32s-84.833 -49.5 -115.5 -84.5s-54.667 -75 -72 -120s-26 -91.5 -26 -139.5
c0 -63.333 14.5 -118.833 43.5 -166.5s67.167 -83.5 114.5 -107.5s99.666 -36 156.999 -36c74 0 145 16 213 48z" />
    <glyph glyph-name="A" unicode="A" horiz-adv-x="727" 
d="M276 276l171 0.000976562l-7 26c-20.667 68.667 -37.5 127.167 -50.5 175.5s-20.833 79.5 -23.5 93.5l-4 21c-6 -38.667 -32.333 -135.334 -79 -290.001zM529 0.000976562l-43 145h-249l-43 -145h-169l237 711h205l236 -711h-174z" />
    <glyph glyph-name="B" unicode="B" horiz-adv-x="637" 
d="M231 130h85.001c80.667 0 121 27.333 121 82c0 24.667 -9.33301 44.667 -28 60s-49.334 23 -92.001 23h-86v-165zM231.001 581v-159h60c42 0 73.833 7.83301 95.5 23.5s32.5 36.167 32.5 61.5c0 49.333 -34 74 -102 74h-86zM69.001 711l276 -0.000976562
c78.667 0 138.167 -18.5 178.5 -55.5s60.5 -83.833 60.5 -140.5c0 -37.333 -9.83301 -70.166 -29.5 -98.499s-45.167 -47.5 -76.5 -57.5c36 -10 65.667 -28.667 89 -56s35 -64 35 -110c0 -56 -20.333 -102.167 -61 -138.5s-95.667 -54.5 -165 -54.5h-307v711z" />
    <glyph glyph-name="C" unicode="C" horiz-adv-x="645" 
d="M594 680v-156.002c-20 12.667 -39.833 22.667 -59.5 30s-38.334 12.333 -56.001 15s-37.834 4 -60.501 4c-56.667 0 -104.5 -20 -143.5 -60s-58.5 -93.333 -58.5 -160c0 -65.333 19.333 -117.166 58 -155.499s88.667 -57.5 150 -57.5c19.333 0 38.833 1.83301 58.5 5.5
s39.334 9.33398 59.001 17.001s37.167 17.167 52.5 28.5v-159c-42.667 -26.667 -104.667 -40 -186 -40c-68 0 -129.667 14.833 -185 44.5s-99.333 72.167 -132 127.5s-49 118.333 -49 189c0 108.667 33.833 197 101.5 265s156.167 102 265.5 102
c80.667 0 142.334 -13.333 185.001 -40z" />
    <glyph glyph-name="D" unicode="D" horiz-adv-x="719" 
d="M235 133l74 -0.00195312c66 0 116.667 20.333 152 61s53 98.334 53 173.001c0 62.667 -18 113.334 -54 152.001s-86.667 58 -152 58h-73v-444zM69 710.998h244c53.333 0 102.833 -9 148.5 -27s84.167 -42.5 115.5 -73.5s56 -67.5 74 -109.5s27 -86.667 27 -134
c0 -114 -33.5 -203.667 -100.5 -269s-155.833 -98 -266.5 -98h-242v711z" />
    <glyph glyph-name="E" unicode="E" horiz-adv-x="573" 
d="M232 130h279v-130h-442v711h438v-130h-275v-161h245v-129h-245v-161z" />
    <glyph glyph-name="F" unicode="F" horiz-adv-x="533" 
d="M502 581h-270v-183h236v-130h-236v-268h-163v711h433v-130z" />
    <glyph glyph-name="G" unicode="G" horiz-adv-x="743" 
d="M682 424v-358.999c-66.667 -48.667 -152 -73 -256 -73c-114 0 -206.5 32.667 -277.5 98s-106.5 154 -106.5 266c0 74 17.333 139 52 195s81.667 98.667 141 128s126.333 44 201 44c80 0 149.333 -14.667 208 -44v-162c-67.333 38.667 -136.666 58 -207.999 58
c-66.667 0 -119.834 -19.833 -159.501 -59.5s-59.5 -92.834 -59.5 -159.501s19.333 -119.667 58 -159s91.667 -59 159 -59c29.333 0 59 4.33301 89 13v135h-115v138h274z" />
    <glyph glyph-name="H" unicode="H" horiz-adv-x="723" 
d="M491 711h164v-711h-164v283h-260v-283h-162v711h162v-289h260v289z" />
    <glyph glyph-name="I" unicode="I" horiz-adv-x="320" 
d="M79 0v711h162v-711h-162z" />
    <glyph glyph-name="J" unicode="J" horiz-adv-x="413" 
d="M32 20l-0.000976562 144c28 -16.667 55 -25 81 -25c49.333 0 74 26.667 74 80v491h163v-495c0 -68 -18 -121 -54 -159s-86.667 -57 -152 -57c-47.333 0 -84.666 7 -111.999 21z" />
    <glyph glyph-name="K" unicode="K" horiz-adv-x="697" 
d="M69 0v711h162v-711h-162zM428 355l252 -355h-203l-239 353l231 358h192z" />
    <glyph glyph-name="L" unicode="L" horiz-adv-x="513" 
d="M231 142h262v-142h-424v711h162v-569z" />
    <glyph glyph-name="M" unicode="M" horiz-adv-x="941" 
d="M53 0l61 710.999h179l98 -258c10.667 -26.667 20.334 -52.334 29.001 -77.001s15.667 -45 21 -61s9.66602 -30.167 12.999 -42.5s5.66602 -21.166 6.99902 -26.499l3 -8c10.667 46.667 35 118.334 73 215.001l100 258h179l73 -711h-162l-27 275
c-3.33301 38 -6 74.333 -8 109s-3.33301 59.667 -4 75l-1 24c-18.667 -52.667 -44 -122 -76 -208l-100 -268h-97l-99 268c-16 43.333 -29.667 82.333 -41 117s-18.666 58.667 -21.999 72l-5 19c0 -40 -3.33301 -109.333 -10 -208l-22 -275h-162z" />
    <glyph glyph-name="N" unicode="N" horiz-adv-x="734" 
d="M69 0l0.00195312 710.999h178l165 -295c23.333 -41.333 43.666 -80 60.999 -116s28.666 -61.333 33.999 -76l8 -23c-7.33301 51.333 -11 123 -11 215v295h162v-711h-178l-170 295c-22 38 -41.667 75.333 -59 112s-29 64 -35 82l-9 26
c10.667 -63.333 16 -136.666 16 -219.999v-295h-162z" />
    <glyph glyph-name="O" unicode="O" horiz-adv-x="775" 
d="M42 357c0 72 14.1689 135.668 42.502 191.001s68.666 98.166 120.999 128.499s113.166 45.5 182.499 45.5c106 0 190.167 -33.333 252.5 -100s93.5 -155 93.5 -265c0 -109.333 -31.333 -197.333 -94 -264s-146.667 -100 -252 -100s-189.333 33.333 -252 100
s-94 154.667 -94 264zM216.002 357.501c0 -66.333 15.5 -119.168 46.5 -158.501s72.833 -59 125.5 -59c34.667 0 65 8.83301 91 26.5s46 43 60 76s21 71.167 21 114.5c0 66.667 -15.5 119.667 -46.5 159s-72.833 59 -125.5 59s-94.5 -19.667 -125.5 -59
s-46.5 -92.166 -46.5 -158.499z" />
    <glyph glyph-name="P" unicode="P" horiz-adv-x="593" 
d="M231 358h53c86 0 129 39.333 129 118c0 70 -39.333 105 -118 105h-64v-223zM69 711h244c52.667 0 99.167 -10.333 139.5 -31s71.333 -48.667 93 -84s32.5 -75.333 32.5 -120c0 -52.667 -12.5 -98 -37.5 -136s-57.167 -65.833 -96.5 -83.5s-83 -26.5 -131 -26.5h-82v-230
h-162v711z" />
    <glyph glyph-name="Q" unicode="Q" horiz-adv-x="780" 
d="M216 357.5c0 -66.333 15.5 -119.168 46.5 -158.501s72.833 -59 125.5 -59c34.667 0 65 8.83301 91 26.5s46 43 60 76s21 71.167 21 114.5c0 66.667 -15.5 119.667 -46.5 159s-72.833 59 -125.5 59s-94.5 -19.667 -125.5 -59s-46.5 -92.166 -46.5 -158.499zM779 -89.002
l-184.997 -71.002l-210 153c-104.667 0.666992 -187.834 34.334 -249.501 101.001s-92.5 154.334 -92.5 263.001c0 72 14.167 135.667 42.5 191s68.666 98.166 120.999 128.499s113.166 45.5 182.499 45.5c106 0 190.167 -33.333 252.5 -100s93.5 -155 93.5 -265
c0 -74 -15.167 -139.167 -45.5 -195.5s-72.833 -99.166 -127.5 -128.499z" />
    <glyph glyph-name="R" unicode="R" horiz-adv-x="646" 
d="M231 579l-0.00195312 -200h77c36.667 0 63.334 8.5 80.001 25.5s25 42.833 25 77.5c0 30 -9.16699 53.667 -27.5 71s-43.166 26 -74.499 26h-80zM434.998 0l-154.999 246.999h-49v-247h-162v711h245c52.667 0 99.167 -9.66699 139.5 -29s71.166 -46.166 92.499 -80.499
s32 -73.833 32 -118.5c0 -52 -11.667 -95.5 -35 -130.5s-55 -61.5 -95 -79.5l180 -273h-193z" />
    <glyph glyph-name="S" unicode="S" horiz-adv-x="541" 
d="M479 679l-0.00390625 -152c-56 33.333 -115 50 -177 50c-27.333 0 -48.333 -5.5 -63 -16.5s-22 -25.5 -22 -43.5s8.83301 -33.667 26.5 -47s43.834 -28 78.501 -44c22 -9.33301 40.167 -17.666 54.5 -24.999s30.833 -17.666 49.5 -30.999s33.5 -27 44.5 -41
s20.5 -31.667 28.5 -53s12 -44.333 12 -69c0 -64 -23.667 -115.833 -71 -155.5s-110 -59.5 -188 -59.5c-84.667 0 -153 14.667 -205 44v164c65.333 -46.667 133.666 -70 204.999 -70c24.667 0 45.167 6.66699 61.5 20s24.5 30.333 24.5 51c0 7.33301 -1.16699 14 -3.5 20
s-6.16602 11.833 -11.499 17.5s-10.666 10.5 -15.999 14.5s-13.166 8.66699 -23.499 14s-19.166 9.66602 -26.499 12.999s-17.833 8 -31.5 14s-24.5 11 -32.5 15c-21.333 10 -40 20.333 -56 31s-31.833 23.834 -47.5 39.501s-27.667 34.667 -36 57
s-12.5 47.166 -12.5 74.499c0 61.333 22.5 110.666 67.5 147.999s107.5 56 187.5 56c71.333 0 132.333 -12 183 -36z" />
    <glyph glyph-name="T" unicode="T" horiz-adv-x="573" 
d="M542 711v-131h-173v-580h-163v580h-174v131h510z" />
    <glyph glyph-name="U" unicode="U" horiz-adv-x="704" 
d="M479 274v437.003h163v-436c0 -92.667 -26.167 -163.334 -78.5 -212.001s-122.833 -73 -211.5 -73c-86.667 0 -156.5 24.167 -209.5 72.5s-79.5 116.833 -79.5 205.5v443h163v-442c0 -24.667 3.33301 -45.834 10 -63.501s16 -31.334 28 -41.001s25.333 -16.667 40 -21
s30.667 -6.5 48 -6.5c84.667 0 127 45.667 127 137z" />
    <glyph glyph-name="V" unicode="V" horiz-adv-x="694" 
d="M675 711l-238.999 -710.999h-180l-236 711h175l85 -284c15.333 -50.667 28.666 -99.334 39.999 -146.001s19 -80.667 23 -102l5 -33c11.333 74 34 167.667 68 281l86 284h173z" />
    <glyph glyph-name="W" unicode="W" horiz-adv-x="1023" 
d="M454 700l120.995 -0.000976562l70 -251c6.66699 -24 13 -47.667 19 -71s11.333 -43.666 16 -60.999s8.83398 -33.833 12.501 -49.5s6.83398 -28.834 9.50098 -39.501s4.83398 -20 6.50098 -28s3.16699 -13.667 4.5 -17l1 -6c9.33301 62.667 29.333 153.667 60 273l64 261
h166l-189 -711h-183l-61 225c-15.333 54 -27.666 99.667 -36.999 137s-14.666 61 -15.999 71l-3 16c-2.66699 -29.333 -22 -104 -58 -224l-65 -225h-181l-191 711h171l65 -262c14 -56 25.667 -106.667 35 -152s15 -76.666 17 -93.999l4 -26c12.667 55.333 36.667 146 72 272
z" />
    <glyph glyph-name="X" unicode="X" horiz-adv-x="698" 
d="M253 360l-214 350.998h189l118 -208c14 26.667 34.333 64.334 61 113.001s43.667 80.334 51 95.001h199l-215 -352l229 -359h-193l-129 221c-15.333 -28.667 -37.333 -68.167 -66 -118.5s-48 -84.5 -58 -102.5h-196z" />
    <glyph glyph-name="Y" unicode="Y" horiz-adv-x="677" 
d="M664 711l-245.001 -449v-262h-163v261l-243 450h191l43 -103c22.667 -53.333 41.334 -99 56.001 -137s24 -62.667 28 -74l6 -17c6.66699 32 37.667 108 93 228l46 103h188z" />
    <glyph glyph-name="Z" unicode="Z" horiz-adv-x="654" 
d="M579 711v-115l-320 -465h332v-131h-528v119l319 461h-312v131h509z" />
    <glyph glyph-name="bracketleft" unicode="[" horiz-adv-x="382" 
d="M367 612h-153v-684h153v-135h-298v953h298v-134z" />
    <glyph glyph-name="backslash" unicode="\" horiz-adv-x="489" 
d="M113 746l378 -854h-158l-380 854h160z" />
    <glyph glyph-name="bracketright" unicode="]" horiz-adv-x="382" 
d="M314 746v-953h-299v135h154v684h-154v134h299z" />
    <glyph glyph-name="asciicircum" unicode="^" horiz-adv-x="517" 
d="M483 350h-142l-81 154l-83 -154h-142l159 276h129z" />
    <glyph glyph-name="underscore" unicode="_" horiz-adv-x="575" 
d="M21 -175v128h534v-128h-534z" />
    <glyph glyph-name="grave" unicode="`" horiz-adv-x="527" 
d="M296 842l90 -187h-127l-118 187h155z" />
    <glyph glyph-name="a" unicode="a" horiz-adv-x="543" 
d="M328 219l-50.001 -0.000976562c-25.333 0 -45.166 -5.33301 -59.499 -16s-21.5 -25 -21.5 -43c0 -36.667 21 -55 63 -55c21.333 0 38 6.83301 50 20.5s18 31.834 18 54.501v39zM77.999 369.999l0.00195312 139.001c18 9.33301 43.167 17.5 75.5 24.5
s68.166 10.5 107.499 10.5c75.333 0 131.666 -16.333 168.999 -49s56 -83.334 56 -152.001v-343h-150v65c-22 -45.333 -66.333 -68 -133 -68c-52 0 -92.667 14.667 -122 44s-44 66 -44 110c0 51.333 18.833 91.333 56.5 120s93.5 43 167.5 43h67v37
c0 22 -6.83301 38.833 -20.5 50.5s-36.834 17.5 -69.501 17.5c-57.333 0 -110.666 -16.333 -159.999 -49z" />
    <glyph glyph-name="b" unicode="b" horiz-adv-x="643" 
d="M336 123c32 0 59.167 13 81.5 39s33.5 60.667 33.5 104c0 46 -11 82 -33 108s-49 39 -81 39s-60 -12.167 -84 -36.5s-36 -58.833 -36 -103.5c0 -46 11 -82.5 33 -109.5s50.667 -40.5 86 -40.5zM217 746l0.00292969 -294c18 29.333 41 51.5 69 66.5s58.333 22.5 91 22.5
c67.333 0 122.666 -24.167 165.999 -72.5s65 -114.833 65 -199.5c0 -48.667 -8.83301 -93.667 -26.5 -135s-44.334 -75 -80.001 -101s-76.834 -39 -123.501 -39c-32.667 0 -63 7.33301 -91 22s-51.333 37 -70 67v-83h-154v746h154z" />
    <glyph glyph-name="c" unicode="c" horiz-adv-x="494" 
d="M193 266c2 -46.667 15.8311 -83.167 41.498 -109.5s59.5 -39.5 101.5 -39.5c44.667 0 87.334 12.333 128.001 37v-128c-41.333 -22.667 -91.666 -34 -150.999 -34c-80 0 -146 25.333 -198 76s-78 116.667 -78 198c1.33301 80 27.333 146.167 78 198.5
s119.667 78.5 207 78.5c56.667 0 104 -10 142 -30v-132c-36 22.667 -77.667 34 -125 34c-43.333 0 -78.5 -12.833 -105.5 -38.5s-40.5 -62.5 -40.5 -110.5z" />
    <glyph glyph-name="d" unicode="d" horiz-adv-x="643" 
d="M309 123c35.333 0 63.833 13.5 85.5 40.5s32.5 63.5 32.5 109.5c0 44.667 -11.833 79.167 -35.5 103.5s-51.5 36.5 -83.5 36.5c-20.667 0 -39.667 -5.33301 -57 -16s-31.333 -27.5 -42 -50.5s-16 -49.833 -16 -80.5c0 -43.333 11.167 -78 33.5 -104s49.833 -39 82.5 -39z
M427 746h154.003v-746h-154v83c-18 -30 -41 -52.333 -69 -67s-58.333 -22 -91 -22c-46.667 0 -87.834 13 -123.501 39s-62.334 59.667 -80.001 101s-26.5 86.333 -26.5 135c0 84.667 21.667 151.167 65 199.5s98.666 72.5 165.999 72.5c32 0 62 -7.5 90 -22.5
s51 -37.167 69 -66.5v294z" />
    <glyph glyph-name="e" unicode="e" horiz-adv-x="561" 
d="M372 316l-0.00195312 13c-5.33301 62.667 -32.666 94 -81.999 94c-7.33301 0 -14.666 -0.833008 -21.999 -2.5s-14.5 -4.5 -21.5 -8.5s-13.667 -8.83301 -20 -14.5s-12 -12.5 -17 -20.5s-9.5 -17.167 -13.5 -27.5s-7.33301 -21.5 -10 -33.5h186zM482.998 160
l0.00292969 -129.002c-18 -12 -42.833 -21 -74.5 -27s-62.834 -9 -93.501 -9c-58.667 0 -109.334 12 -152.001 36s-74.334 56.333 -95.001 97s-31 87.334 -31 140.001c0 84.667 23.5 151.167 70.5 199.5s105.5 72.5 175.5 72.5c72 0 128.833 -20.833 170.5 -62.5
s62.5 -104.167 62.5 -187.5c0 -15.333 -2.66699 -43 -8 -83h-315c10 -29.333 28.167 -52.166 54.5 -68.499s57.833 -24.5 94.5 -24.5c54 0 101 15.333 141 46z" />
    <glyph glyph-name="f" unicode="f" horiz-adv-x="364" 
d="M386 749v-124.997c-18.667 8 -36.667 12 -54 12c-12.667 0 -23.667 -1.33301 -33 -4s-17.333 -6.83398 -24 -12.501s-11.834 -13.834 -15.501 -24.501s-5.5 -24 -5.5 -40v-20h100v-113h-100v-422h-153v422h-69v113h69v20c0 65.333 18 115.666 54 150.999
s86.333 53 151 53c32.667 0 59.334 -3.33301 80.001 -10z" />
    <glyph glyph-name="g" unicode="g" horiz-adv-x="616" 
d="M301 140c33.333 0 59.168 12.333 77.501 37s27.5 55 27.5 91c0 95.333 -34.667 143 -104 143c-30.667 0 -54.834 -12 -72.501 -36s-26.5 -57 -26.5 -99c0 -44 8.5 -77.667 25.5 -101s41.167 -35 72.5 -35zM406.002 535l153 -0.000976562v-483
c0 -30 -3.33301 -57.5 -10 -82.5s-16 -46.833 -28 -65.5s-26.333 -35.167 -43 -49.5s-35 -26 -55 -35s-41.167 -15.667 -63.5 -20s-45.833 -6.5 -70.5 -6.5c-76 0 -141.667 13.333 -197 40v158c49.333 -40 109.666 -60 180.999 -60c46.667 0 80.5 9.83301 101.5 29.5
s31.5 50.834 31.5 93.501v36c-32 -48 -81 -72 -147 -72c-28 0 -54.5 5 -79.5 15s-48 25 -69 45s-37.667 47.167 -50 81.5s-18.5 73.5 -18.5 117.5c0 76 20.5 138.833 61.5 188.5s95.167 74.5 162.5 74.5c62.667 0 109.334 -25 140.001 -75v70z" />
    <glyph glyph-name="h" unicode="h" 
d="M217 746l0.000976562 -302.001c28 64 81.667 96 161 96c52 0 94.333 -16.5 127 -49.5s49 -82.833 49 -149.5v-341h-154v316c0 30.667 -7.83301 54.834 -23.5 72.501s-35.834 26.5 -60.501 26.5c-10 0 -19.833 -1.5 -29.5 -4.5s-20.167 -8.66699 -31.5 -17
s-20.5 -22 -27.5 -41s-10.5 -42.5 -10.5 -70.5v-282h-154v746h154z" />
    <glyph glyph-name="i" unicode="i" horiz-adv-x="290" 
d="M69 0v535h153v-535h-153zM56 690c0 24.667 8.66699 45.834 26 63.501s38.333 26.5 63 26.5s45.834 -8.83301 63.501 -26.5s26.5 -38.834 26.5 -63.501s-8.83301 -45.834 -26.5 -63.501s-38.834 -26.5 -63.501 -26.5s-45.667 8.83301 -63 26.5s-26 38.834 -26 63.501z" />
    <glyph glyph-name="j" unicode="j" horiz-adv-x="288" 
d="M-42 -192l0.000976562 117c22.667 -10.667 42.667 -16 60 -16c36.667 0 55 23.667 55 71v555h153v-558c0 -56 -15.833 -101 -47.5 -135s-77.5 -51 -137.5 -51c-22.667 0 -50.334 5.66699 -83.001 17zM59.001 690c0 24.667 8.66699 45.834 26 63.501s38.333 26.5 63 26.5
s45.834 -8.83301 63.501 -26.5s26.5 -38.834 26.5 -63.501s-8.83301 -45.834 -26.5 -63.501s-38.834 -26.5 -63.501 -26.5s-45.667 8.83301 -63 26.5s-26 38.834 -26 63.501z" />
    <glyph glyph-name="k" unicode="k" horiz-adv-x="577" 
d="M566 0h-178l-171 263v-263h-154v728h154v-432l169 239h177l-185 -257z" />
    <glyph glyph-name="l" unicode="l" horiz-adv-x="290" 
d="M69 0v746h153v-746h-153z" />
    <glyph glyph-name="m" unicode="m" horiz-adv-x="905" 
d="M217 535l-0.000976562 -83.9941c9.33301 18.667 21.333 34.5 36 47.5s31.667 23.167 51 30.5s40.666 11 63.999 11c75.333 0 125.333 -33.667 150 -101c12.667 31.333 32.834 56 60.501 74s60.5 27 98.5 27c52.667 0 94.334 -16.833 125.001 -50.5s46 -82.5 46 -146.5
v-343h-154v317c0 30.667 -6 54.667 -18 72s-29.333 26 -52 26c-10 0 -19.833 -1.83301 -29.5 -5.5s-19.5 -9.83398 -29.5 -18.501s-17.833 -22.334 -23.5 -41.001s-8.5 -41.334 -8.5 -68.001v-282h-154v317c0 30.667 -6 54.667 -18 72s-29.333 26 -52 26
c-10.667 0 -20.667 -1.83301 -30 -5.5s-19 -9.83398 -29 -18.501s-18 -22.334 -24 -41.001s-9 -41.334 -9 -68.001v-282h-154v535h154z" />
    <glyph glyph-name="n" unicode="n" 
d="M217 535l-0.000976562 -90.999c9.33301 19.333 21.5 36.166 36.5 50.499s33.167 25.5 54.5 33.5s45 12 71 12c54.667 0 97.5 -16.333 128.5 -49s46.5 -80.667 46.5 -144v-347h-154v318c0 32 -7.5 56.167 -22.5 72.5s-35.833 24.5 -62.5 24.5
c-18 0 -34.167 -4.5 -48.5 -13.5s-26.166 -23.667 -35.499 -44s-14 -45.5 -14 -75.5v-282h-154v535h154z" />
    <glyph glyph-name="o" unicode="o" horiz-adv-x="597" 
d="M300 -8c-84 0 -148.832 25.166 -194.499 75.499s-68.5 114.833 -68.5 193.5c0 82 23.833 149.5 71.5 202.5s111.5 79.5 191.5 79.5c83.333 0 147.666 -25.667 192.999 -77s68 -116.666 68 -195.999c0 -81.333 -23 -148 -69 -200s-110 -78 -192 -78zM299.001 421.999
c-34 0 -59.5 -14.5 -76.5 -43.5s-25.5 -66.167 -25.5 -111.5c0 -29.333 3.5 -55.5 10.5 -78.5s18.5 -41.667 34.5 -56s35.667 -21.5 59 -21.5c34 0 59.167 14.167 75.5 42.5s24.5 65.5 24.5 111.5c0 47.333 -8 85.333 -24 114s-42 43 -78 43z" />
    <glyph glyph-name="p" unicode="p" horiz-adv-x="643" 
d="M338 123c34 0 61.335 12.668 82.002 38.001s31 60.333 31 105c0 48 -10.667 84.5 -32 109.5s-48.333 37.5 -81 37.5c-15.333 0 -30 -3 -44 -9s-26.833 -14.5 -38.5 -25.5s-21 -25.667 -28 -44s-10.5 -38.833 -10.5 -61.5c0 -30.667 5.16699 -57.334 15.5 -80.001
s24.666 -40 42.999 -52s39.166 -18 62.499 -18zM217.002 535.001v-83c38 59.333 92 89 162 89c69.333 0 124.833 -24.5 166.5 -73.5s62.5 -115.167 62.5 -198.5c0 -79.333 -20.333 -145 -61 -197s-96.667 -78 -168 -78c-72.667 0 -126.667 28.333 -162 85v-276h-154v732h154
z" />
    <glyph glyph-name="q" unicode="q" horiz-adv-x="643" 
d="M309 123c35.333 0 63.833 13.5 85.5 40.5s32.5 63.5 32.5 109.5c0 44.667 -11.833 79.167 -35.5 103.5s-51.5 36.5 -83.5 36.5c-20.667 0 -39.667 -5.33301 -57 -16s-31.333 -27.5 -42 -50.5s-16 -49.833 -16 -80.5c0 -43.333 11.167 -78 33.5 -104s49.833 -39 82.5 -39z
M427 535h154.001v-732h-154v280c-18 -30 -41 -52.333 -69 -67s-58.333 -22 -91 -22c-72 0 -128.333 26 -169 78s-61 117.667 -61 197c0 83.333 21.167 149.5 63.5 198.5s98.166 73.5 167.499 73.5c32 0 62 -7.5 90 -22.5s51 -37.167 69 -66.5v83z" />
    <glyph glyph-name="r" unicode="r" horiz-adv-x="389" 
d="M216 535l0.00292969 -99.002c4.66699 14.667 11.167 28.334 19.5 41.001s18 23.5 29 32.5s23.333 16 37 21s28.167 7.5 43.5 7.5c17.333 0 30.666 -1.33301 39.999 -4v-146c-16.667 8 -36 12 -58 12c-16.667 0 -31.834 -3.16699 -45.501 -9.5
s-25.334 -15.166 -35.001 -26.499s-17.167 -25.333 -22.5 -42s-8 -35 -8 -55v-267h-154l1 535h153z" />
    <glyph glyph-name="s" unicode="s" horiz-adv-x="459" 
d="M401 519l0.00195312 -131.999c-39.333 22 -83 33 -131 33c-18.667 0 -32.834 -3.5 -42.501 -10.5s-14.5 -16.5 -14.5 -28.5c0 -6.66699 1.83301 -12.667 5.5 -18s9.5 -10.5 17.5 -15.5s15.667 -9.33301 23 -13s17.333 -8.5 30 -14.5s23 -11 31 -15
c33.333 -17.333 59.666 -36.833 78.999 -58.5s29 -49.834 29 -84.501c0 -52.667 -19 -93.5 -57 -122.5s-88.333 -43.5 -151 -43.5s-116.667 11 -162 33v137c19.333 -14 42.833 -26 70.5 -36s55.5 -15 83.5 -15c38.667 0 58 12 58 36c0 6.66699 -1.83301 12.834 -5.5 18.501
s-9.66699 11 -18 16s-16 9.16699 -23 12.5s-17 7.66602 -30 12.999s-23.167 10 -30.5 14c-71.333 34 -107 84.667 -107 152c0 51.333 19.667 91.5 59 120.5s89 43.5 149 43.5c54 0 99.667 -7.33301 137 -22z" />
    <glyph glyph-name="t" unicode="t" horiz-adv-x="406" 
d="M241 422v-246c0 -19.333 5.5 -33.833 16.5 -43.5s25.5 -14.5 43.5 -14.5c27.333 0 52.333 7 75 21v-128c-26.667 -10.667 -62 -16 -106 -16c-121.333 0 -182 60.667 -182 182v245h-78v113h78v126h153v-126h125v-113h-125z" />
    <glyph glyph-name="u" unicode="u" 
d="M394 535h154.001v-535h-154v85c-13.333 -28 -33.833 -49.833 -61.5 -65.5s-61.167 -23.5 -100.5 -23.5c-54.667 0 -97.334 15.333 -128.001 46s-46 75.667 -46 135v358h154v-323c0 -30.667 7.16699 -54 21.5 -70s34.833 -24 61.5 -24c66 0 99 44.667 99 134v283z" />
    <glyph glyph-name="v" unicode="v" horiz-adv-x="564" 
d="M203 0l-198.001 534.998h162l69 -228c10.667 -35.333 19.834 -68.666 27.501 -99.999s12.834 -53.666 15.501 -66.999l3 -21c7.33301 46 23.666 108.667 48.999 188l71 228h158l-200 -535h-157z" />
    <glyph glyph-name="w" unicode="w" horiz-adv-x="849" 
d="M177 0l-172 534.997h160l46 -177c12 -44 21.667 -83.833 29 -119.5s12 -60.167 14 -73.5l2 -20c5.33301 42.667 22.666 113.667 51.999 213l51 177h133l51 -177c12.667 -44 23.334 -83.833 32.001 -119.5s14 -60.167 16 -73.5l3 -20c5.33301 42 22 113 50 213l49 177h152
l-171 -535h-158l-46 175c-4.66699 17.333 -9.16699 34.333 -13.5 51s-7.83301 31.334 -10.5 44.001s-5.16699 24.834 -7.5 36.501s-4.16602 21.334 -5.49902 29.001s-2.5 14.5 -3.5 20.5s-1.83301 10.333 -2.5 13l-1 4c-6.66699 -46.667 -21.334 -112.667 -44.001 -198
l-46 -175h-159z" />
    <glyph glyph-name="x" unicode="x" horiz-adv-x="554" 
d="M358 267l179 -267h-168l-90 161l-96 -161h-167l192 268l-179 267h171l86 -159l96 159h169z" />
    <glyph glyph-name="y" unicode="y" horiz-adv-x="560" 
d="M212 8l-207.001 526.999h168l58 -167c14.667 -42.667 26.834 -79.667 36.501 -111s15.5 -51.666 17.5 -60.999l3 -15c8 28.667 27 91 57 187l53 167h158l-193 -520c-56 -149.333 -141 -224 -255 -224c-22 0 -41.667 1.66699 -59 5v123c11.333 -2.66699 23.333 -4 36 -4
c31.333 0 57 7.5 77 22.5s36.667 38.5 50 70.5z" />
    <glyph glyph-name="z" unicode="z" horiz-adv-x="504" 
d="M450 535v-107l-234 -309h248v-119h-422v111l234 305h-224v119h398z" />
    <glyph glyph-name="braceleft" unicode="{" horiz-adv-x="400" 
d="M42 343l18 -0.00195312c11.333 0 21.833 1.83301 31.5 5.5s18 8.83398 25 15.501s13 14.334 18 23.001s8.66699 17.834 11 27.501s3.5 19.5 3.5 29.5c0 11.333 -2 30.333 -6 57s-6 47.667 -6 63c0 55.333 15.833 100.833 47.5 136.5s71.834 53.5 120.501 53.5
c22 0 45.333 -4 70 -12v-143c-10.667 6.66699 -21.667 10 -33 10c-14.667 0 -27.334 -5.33301 -38.001 -16s-16 -24.667 -16 -42c0 -8.66699 2.16699 -26.834 6.5 -54.501s6.5 -49.834 6.5 -66.501c0 -43.333 -12.167 -80 -36.5 -110s-53.166 -47 -86.499 -51
c33.333 -4.66699 62.166 -22 86.499 -52s36.5 -66.667 36.5 -110c0 -16.667 -2.16699 -38.834 -6.5 -66.501s-6.5 -45.5 -6.5 -53.5c0 -17.333 5.33301 -31.5 16 -42.5s23.334 -16.5 38.001 -16.5c10.667 0 21.667 3.33301 33 10v-143c-24.667 -8 -48 -12 -70 -12
c-48.667 0 -88.834 17.833 -120.501 53.5s-47.5 80.834 -47.5 135.501c0 15.333 2 36.5 6 63.5s6 46.167 6 57.5c0 26.667 -8 50.334 -24 71.001s-37.667 31 -65 31l-18 -1v149z" />
    <glyph glyph-name="bar" unicode="|" horiz-adv-x="294" 
d="M74 -205v938h147v-938h-147z" />
    <glyph glyph-name="braceright" unicode="}" horiz-adv-x="400" 
d="M341 343l17 -0.000976562v-149c-4.66699 0.666992 -10.334 1 -17.001 1c-27.333 0 -49.166 -10.333 -65.499 -31s-24.5 -44.334 -24.5 -71.001c0 -11.333 2.16699 -30.5 6.5 -57.5s6.5 -48.167 6.5 -63.5c0 -54.667 -15.833 -99.834 -47.5 -135.501
s-71.834 -53.5 -120.501 -53.5c-21.333 0 -44.333 4 -69 12v143c11.333 -6.66699 22 -10 32 -10c14.667 0 27.334 5.5 38.001 16.5s16 25.167 16 42.5c0 8 -2.16699 25.833 -6.5 53.5s-6.5 49.834 -6.5 66.501c0 43.333 12.167 80 36.5 110s52.833 47.333 85.5 52
c-32.667 4 -61.167 21 -85.5 51s-36.5 66.667 -36.5 110c0 16.667 2.16699 38.834 6.5 66.501s6.5 45.834 6.5 54.501c0 11.333 -2.5 21.5 -7.5 30.5s-11.667 15.833 -20 20.5s-17.166 7 -26.499 7c-11.333 0 -22 -3.33301 -32 -10v143c24.667 8 47.667 12 69 12
c32 0 60.833 -8.16699 86.5 -24.5s45.667 -39 60 -68s21.5 -61.5 21.5 -97.5c0 -15.333 -2.16699 -36.333 -6.5 -63s-6.5 -45.667 -6.5 -57c0 -26.667 8.16699 -50.167 24.5 -70.5s38.166 -30.5 65.499 -30.5z" />
    <glyph glyph-name="asciitilde" unicode="~" horiz-adv-x="689" 
d="M553 400l105.999 -86c-54 -76 -114.667 -114 -182 -114c-32 0 -61.667 4.33301 -89 13s-52.5 17.167 -75.5 25.5s-45.5 12.5 -67.5 12.5c-23.333 0 -42.666 -4.83301 -57.999 -14.5s-32.333 -25.167 -51 -46.5l-106 84c22 30.667 48.667 57.5 80 80.5s65 34.5 101 34.5
s68.667 -4.16699 98 -12.5s55 -16.833 77 -25.5s41.333 -13 58 -13c23.333 0 42.833 5 58.5 15s32.5 25.667 50.5 47z" />
    <glyph glyph-name="uni00A0" unicode="&#xa0;" horiz-adv-x="263" 
 />
    <glyph glyph-name="exclamdown" unicode="&#xa1;" horiz-adv-x="303" 
d="M55 449c0 26.667 9.16699 49.334 27.5 68.001s41 28 68 28s49.833 -9.33301 68.5 -28s28 -41.334 28 -68.001s-9.33301 -49.334 -28 -68.001s-41.5 -28 -68.5 -28s-49.667 9.33301 -68 28s-27.5 41.334 -27.5 68.001zM79 -174v462h147v-462h-147z" />
    <glyph glyph-name="cent" unicode="&#xa2;" horiz-adv-x="503" 
d="M462 510l0.000976562 -128.995c-35.333 22.667 -76.666 34 -123.999 34c-43.333 0 -79.166 -12.833 -107.499 -38.5s-42.833 -62.5 -43.5 -110.5c2 -30.667 9.5 -57.334 22.5 -80.001s30.167 -39.834 51.5 -51.501s46 -17.5 74 -17.5c44.667 0 87 12.333 127 37v-128
c-27.333 -14 -55 -23.333 -83 -28v-115h-128v114c-64.667 13.333 -117.334 44.166 -158.001 92.499s-61 107.166 -61 176.499c1.33301 67.333 21.166 125.666 59.499 174.999s91.166 81 158.499 95v118h129v-116c29.333 -6 57 -15.333 83 -28z" />
    <glyph glyph-name="sterling" unicode="&#xa3;" horiz-adv-x="568" 
d="M227 130l307.998 -0.00195312v-130h-488v128c52 26.667 78 72.334 78 137.001v16h-79v112h63c-2 16.667 -3 33.334 -3 50.001c0 80 20.667 142.167 62 186.5s103 66.5 185 66.5c58 0 106 -11.333 144 -34v-145c-33.333 23.333 -69.666 35 -108.999 35
c-37.333 0 -65.166 -9.33301 -83.499 -28s-27.5 -47.667 -27.5 -87c0 -10 0.666992 -24.667 2 -44h175v-112h-163v-17c0 -62 -21.333 -106.667 -64 -134z" />
    <glyph glyph-name="currency" unicode="&#xa4;" horiz-adv-x="601" 
d="M61 328c0 40 10.001 78.667 30.001 116l-61 60l89 86l61 -60c38 20 78.667 30 122 30c42 0 82 -9.66699 120 -29l61 59l90 -86l-61 -60c20 -37.333 30 -76 30 -116c0 -40.667 -10.333 -80 -31 -118l62 -61l-90 -86l-62 60c-36.667 -18.667 -76.334 -28 -119.001 -28
c-44 0 -84.667 9.66699 -122 29l-61 -61l-89 86l62 61c-20.667 38 -31 77.333 -31 118zM190.001 328c0 -20 4.5 -38.5 13.5 -55.5s22.167 -30.833 39.5 -41.5s37 -16 59 -16c32.667 0 59.334 11 80.001 33s31 48.5 31 79.5s-10.333 57.667 -31 80s-47.334 33.5 -80.001 33.5
s-59.5 -11.167 -80.5 -33.5s-31.5 -48.833 -31.5 -79.5z" />
    <glyph glyph-name="yen" unicode="&#xa5;" horiz-adv-x="669" 
d="M660 691l-179 -310h118v-95h-173l-12 -20v-48h185v-94h-185v-124h-162v124h-182v94h182v48l-12 20h-170v95h116l-177 310h191l133 -259l139 259h188z" />
    <glyph glyph-name="brokenbar" unicode="&#xa6;" horiz-adv-x="294" 
d="M221 389h-147v357h147v-357zM221 -124h-147v357h147v-357z" />
    <glyph glyph-name="section" unicode="&#xa7;" horiz-adv-x="631" 
d="M240 340l-12 6.00098c-8 -13.333 -12 -26.333 -12 -39c0 -20 9.16699 -37.333 27.5 -52s51.166 -32 98.499 -52c18.667 -8 36.667 -16.667 54 -26c5.33301 11.333 8 22.666 8 33.999c0 10 -2 19 -6 27s-8.5 15 -13.5 21s-13.333 12.5 -25 19.5s-22.167 12.833 -31.5 17.5
s-23.166 11.5 -41.499 20.5s-33.833 16.833 -46.5 23.5zM505 680.001l0.000976562 -152c-57.333 34 -116.333 51 -177 51c-28 0 -48.5 -4.66699 -61.5 -14s-19.5 -22 -19.5 -38c0 -5.33301 1 -10.333 3 -15s5.5 -9.5 10.5 -14.5s10 -9.5 15 -13.5s13 -9 24 -15
s21.167 -11.333 30.5 -16l40 -20c17.333 -8.66699 32.666 -16.667 45.999 -24c23.333 -12.667 43 -24.667 59 -36s30.833 -25 44.5 -41s23.834 -34.167 30.501 -54.5s10 -43.5 10 -69.5c0 -46 -14.667 -86.333 -44 -121c21.333 -29.333 32 -61 32 -95
c0 -58.667 -22.5 -104.834 -67.5 -138.501s-106.5 -50.5 -184.5 -50.5c-84.667 0 -153 15 -205 45v162c63.333 -46 131.666 -69 204.999 -69c57.333 0 86 17 86 51c0 12.667 -4.33301 23.5 -13 32.5s-25.667 20 -51 33s-69 32.833 -131 59.5
c-84.667 38 -127 102.333 -127 193c0 44.667 16 86 48 124c-20.667 26.667 -31 57.334 -31 92.001c0 58 21.5 104.333 64.5 139s102.833 52 179.5 52c70 0 131.333 -12.333 184 -37z" />
    <glyph glyph-name="dieresis" unicode="&#xa8;" horiz-adv-x="527" 
d="M35 749c0 15.333 3.83301 29.5 11.5 42.5s18.167 23.333 31.5 31s28.333 11.5 45 11.5c24 0 44.333 -8.16699 61 -24.5s25 -36.5 25 -60.5c0 -24.667 -8.33301 -45.334 -25 -62.001s-37 -25 -61 -25c-25.333 0 -46.333 8.33301 -63 25s-25 37.334 -25 62.001zM317 749
c0 15.333 3.83301 29.5 11.5 42.5s18.167 23.333 31.5 31s28.333 11.5 45 11.5c24.667 0 45.334 -8.16699 62.001 -24.5s25 -36.5 25 -60.5c0 -24.667 -8.33301 -45.334 -25 -62.001s-37.334 -25 -62.001 -25c-25.333 0 -46.333 8.33301 -63 25s-25 37.334 -25 62.001z" />
    <glyph glyph-name="copyright" unicode="&#xa9;" horiz-adv-x="802" 
d="M37 356c0 66 16.167 127 48.5 183s76.5 100.167 132.5 132.5s117.333 48.5 184 48.5c65.333 0 126 -16.167 182 -48.5s100.167 -76.5 132.5 -132.5s48.5 -117 48.5 -183s-16.167 -127 -48.5 -183s-76.333 -100.167 -132 -132.5s-116.5 -48.5 -182.5 -48.5
c-66.667 0 -128 16.167 -184 48.5s-100.167 76.5 -132.5 132.5s-48.5 117 -48.5 183zM139 355c0 -76 24.835 -138.667 74.502 -188s112.5 -74 188.5 -74c75.333 0 137.666 24.667 186.999 74s74 112 74 188c0 75.333 -24.833 137.833 -74.5 187.5
s-111.834 74.5 -186.501 74.5c-76 0 -138.833 -24.833 -188.5 -74.5s-74.5 -112.167 -74.5 -187.5zM352.002 355c1.33301 -24 9.33203 -43.001 23.999 -57.001s31.667 -21 51 -21c29.333 0 58.333 8.66699 87 26v-100c-29.333 -15.333 -63.333 -23 -102 -23
c-31.333 0 -60.5 7 -87.5 21s-49 34.5 -66 61.5s-25.5 57.833 -25.5 92.5c0.666992 53.333 17.834 96.5 51.501 129.5s78.5 49.5 134.5 49.5c34 0 65.667 -7.66699 95 -23v-100c-26.667 16 -54.667 24 -84 24c-12.667 0 -24.5 -2.66699 -35.5 -8
s-20.667 -14.166 -29 -26.499s-12.833 -27.5 -13.5 -45.5z" />
    <glyph glyph-name="ordfeminine" unicode="&#xaa;" horiz-adv-x="421" 
d="M258 599l-44 -0.000976562c-14 0 -26.333 -2.16699 -37 -6.5s-18.667 -10.5 -24 -18.5s-8 -17 -8 -27c0 -30 18.333 -45 55 -45c18 0 32.167 5.83301 42.5 17.5s15.5 26.834 15.5 45.501v34zM44 726.999l-0.000976562 116.998c38.667 19.333 90.667 29 156 29
c64.667 0 112.5 -13.667 143.5 -41s46.5 -69.666 46.5 -126.999v-292h-126v56c-18 -39.333 -56.333 -59 -115 -59c-43.333 0 -77.333 12.333 -102 37s-37 56.334 -37 95.001c0 28 6.83301 52.167 20.5 72.5s34.834 36.333 63.501 48s64 17.5 106 17.5h58v30
c0 37.333 -26 56 -78 56c-50 0 -95.333 -13 -136 -39z" />
    <glyph glyph-name="guillemotleft" unicode="&#xab;" horiz-adv-x="624" 
d="M348 438l-154 -171l154 -171h-161l-159 171l159 171h161zM580 438l-154 -171l154 -171h-160l-160 171l160 171h160z" />
    <glyph glyph-name="logicalnot" unicode="&#xac;" horiz-adv-x="635" 
d="M588 143h-126v174h-415v123h541v-297z" />
    <glyph glyph-name="uni00AD" unicode="&#xad;" horiz-adv-x="375" 
d="M47 213v127h282v-127h-282z" />
    <glyph glyph-name="registered" unicode="&#xae;" horiz-adv-x="518" 
d="M240 666l0.000976562 -63h24c9.33301 0 16.666 3 21.999 9s8 13.333 8 22c0 12 -2.83301 20.333 -8.5 25s-14.167 7 -25.5 7h-20zM183.001 714h75c63.333 0 95 -26.667 95 -80c0 -33.333 -13.333 -56.333 -40 -69l64 -100h-70l-53 90h-14v-90h-57v249zM261.001 397
c55.333 0 99.666 16.666 132.999 49.999s50 78 50 134s-16.667 101 -50 135s-77.666 51 -132.999 51c-37.333 0 -70 -7.66699 -98 -23s-49.5 -37.166 -64.5 -65.499s-22.5 -60.833 -22.5 -97.5c0 -56 16.667 -100.667 50 -134s78.333 -50 135 -50zM260.001 828.999
c71.333 0 130.666 -23.333 177.999 -70s71 -106 71 -178s-23.667 -131 -71 -177s-106.666 -69 -177.999 -69c-72.667 0 -132.5 23 -179.5 69s-70.5 105 -70.5 177s23.5 131.333 70.5 178s106.833 70 179.5 70z" />
    <glyph glyph-name="macron" unicode="&#xaf;" horiz-adv-x="527" 
d="M451 687h-375v104h375v-104z" />
    <glyph glyph-name="degree" unicode="&#xb0;" horiz-adv-x="463" 
d="M32 522.5c0 55.667 19.333 102.834 58 141.501s85.834 58 141.501 58s103.167 -19.333 142.5 -58s59 -85.834 59 -141.501s-19.667 -103.167 -59 -142.5s-86.833 -59 -142.5 -59s-102.834 19.667 -141.501 59s-58 86.833 -58 142.5zM139 522
c0 -25.333 9.16699 -47 27.5 -65s40.166 -27 65.499 -27s47 9 65 27s27 39.667 27 65s-9 47.166 -27 65.499s-39.667 27.5 -65 27.5s-47.166 -9.16699 -65.499 -27.5s-27.5 -40.166 -27.5 -65.499z" />
    <glyph glyph-name="plusminus" unicode="&#xb1;" horiz-adv-x="621" 
d="M47 30v127h527v-127h-527zM381 471h193v-127h-193v-148h-142v148h-192v127h192v146h142v-146z" />
    <glyph glyph-name="uni00B2" unicode="&#xb2;" horiz-adv-x="384" 
d="M37 413v81.001c50.667 36.667 93.167 74.667 127.5 114s51.5 74.666 51.5 105.999c0 16.667 -5.5 29.667 -16.5 39s-27.167 14 -48.5 14c-34 0 -68.667 -12.667 -104 -38v110c38.667 23.333 80 35 124 35c48.667 0 88 -12.667 118 -38s45 -60.666 45 -105.999
c0 -80.667 -52.333 -154.334 -157 -221.001h171v-96h-311z" />
    <glyph glyph-name="uni00B3" unicode="&#xb3;" horiz-adv-x="371" 
d="M115 690l14.9951 0.00390625c54 0 81 14.5 81 43.5s-18.167 43.5 -54.5 43.5s-70.5 -12.333 -102.5 -37v106c34 18.667 71.667 28 113 28c32.667 0 61.334 -5.5 86.001 -16.5s43.334 -26 56.001 -45s19 -40.833 19 -65.5c0 -28 -7.5 -50.833 -22.5 -68.5
s-35.833 -29.167 -62.5 -34.5c26.667 -2.66699 48.834 -13.334 66.501 -32.001s26.5 -43.334 26.5 -74.001c0 -38.667 -14.667 -69.834 -44 -93.501s-68.666 -35.5 -117.999 -35.5c-22.667 0 -47 2.5 -73 7.5s-47.333 12.167 -64 21.5v99c41.333 -21.333 81.333 -32 120 -32
c13.333 0 24.833 2.16699 34.5 6.5s16.834 10.166 21.501 17.499s7 15.333 7 24c0 28.667 -29.667 43 -89 43h-16v94z" />
    <glyph glyph-name="acute" unicode="&#xb4;" horiz-adv-x="527" 
d="M141 655l91 187h154l-117 -187h-128z" />
    <glyph glyph-name="mu" unicode="&#xb5;" horiz-adv-x="616" 
d="M400 535h153.998v-535h-154v63c-23.333 -44.667 -60 -67 -110 -67c-24.667 0 -49 4.66699 -73 14v-200h-154v725h154v-323c0 -29.333 8.83301 -52.333 26.5 -69s39.834 -25 66.501 -25c30.667 0 53.334 10.167 68.001 30.5s22 54.833 22 103.5v283z" />
    <glyph glyph-name="paragraph" unicode="&#xb6;" horiz-adv-x="624" 
d="M342 711v-867.999h-117v492c-68.667 0 -121.667 18.5 -159 55.5s-56 81.5 -56 133.5c0 24 4.33301 46.667 13 68s21.834 41.166 39.501 59.499s42.167 32.833 73.5 43.5s67.666 16 108.999 16h97zM439 -156.999l1 868h116v-868h-117z" />
    <glyph glyph-name="periodcentered" unicode="&#xb7;" horiz-adv-x="282" 
d="M47 265.5c0 25.667 9.16699 47.667 27.5 66s40.5 27.5 66.5 27.5s48.167 -9.16699 66.5 -27.5s27.5 -40.333 27.5 -66s-9.16699 -47.667 -27.5 -66s-40.5 -27.5 -66.5 -27.5s-48.167 9.16699 -66.5 27.5s-27.5 40.333 -27.5 66z" />
    <glyph glyph-name="cedilla" unicode="&#xb8;" horiz-adv-x="527" 
d="M357 -132c0 -44 -15.833 -80 -47.5 -108s-78.5 -42 -140.5 -42v96c25.333 0 44.833 5.83301 58.5 17.5s20.5 28.167 20.5 49.5c0 19.333 -9.33301 41 -28 65h120c11.333 -18 17 -44 17 -78z" />
    <glyph glyph-name="uni00B9" unicode="&#xb9;" horiz-adv-x="293" 
d="M10 687v103l141 80h90v-457h-108v339z" />
    <glyph glyph-name="ordmasculine" unicode="&#xba;" horiz-adv-x="465" 
d="M234 407c-71.333 0 -126.5 21.332 -165.5 63.999s-58.5 97 -58.5 163c0 70.667 20.167 128.667 60.5 174s94.833 68 163.5 68c70.667 0 125.167 -21.833 163.5 -65.5s57.5 -99.167 57.5 -166.5c0 -45.333 -8.33301 -85.666 -25 -120.999s-42 -63.5 -76 -84.5
s-74 -31.5 -120 -31.5zM232 773.999c-28.667 0 -50.167 -12.334 -64.5 -37.001s-21.5 -56.667 -21.5 -96s7.5 -71.166 22.5 -95.499s37.167 -36.5 66.5 -36.5c28 0 49 12 63 36s21 55.333 21 94c0 90 -29 135 -87 135z" />
    <glyph glyph-name="guillemotright" unicode="&#xbb;" horiz-adv-x="623" 
d="M204 438l160 -171l-160 -171h-161l154 171l-154 171h161zM436 438l160 -171l-160 -171h-161l155 171l-155 171h161z" />
    <glyph glyph-name="onequarter" unicode="&#xbc;" horiz-adv-x="873" 
d="M133 294v337l-123 -65v104l141 80h90v-456h-108zM582 750h114l-451 -750h-115zM610 180h93v192zM866 180v-89h-55v-91h-108v91h-204v89l141 273h171v-273h55z" />
    <glyph glyph-name="onehalf" unicode="&#xbd;" horiz-adv-x="877" 
d="M551 0l0.00195312 81c50.667 36.667 93.167 74.667 127.5 114s51.5 74.666 51.5 105.999c0 16.667 -5.5 29.667 -16.5 39s-27.167 14 -48.5 14c-32.667 0 -67.334 -13 -104.001 -39v111c37.333 22.667 78.666 34 123.999 34c48 0 87 -12.667 117 -38
s45 -60.666 45 -105.999c0 -81.333 -52 -155 -156 -221h171v-95h-311zM10.002 566v104l141 80h90v-456h-108v337zM130.002 0l452 750h114l-451 -750h-115z" />
    <glyph glyph-name="threequarters" unicode="&#xbe;" horiz-adv-x="946" 
d="M41 618l0.00195312 106.002c34 19.333 71.667 29 113 29c33.333 0 62.166 -5.5 86.499 -16.5s42.833 -26.167 55.5 -45.5s19 -41.333 19 -66c0 -27.333 -7.5 -50 -22.5 -68s-35.833 -29.667 -62.5 -35c26 -2.66699 47.833 -13.334 65.5 -32.001
s26.5 -43.334 26.5 -74.001c0 -38.667 -14.333 -69.667 -43 -93s-67.667 -35 -117 -35c-23.333 0 -47.833 2.5 -73.5 7.5s-46.834 11.833 -63.501 20.5v99c40 -20.667 79.333 -31 118 -31c20 0 35.833 4.5 47.5 13.5s17.5 20.5 17.5 34.5c0 28.667 -30 43 -90 43h-16v94h15
c54.667 0 82 14.333 82 43s-18.667 43 -56 43c-35.333 0 -69.333 -12.333 -102 -37zM639.002 750.002h113l-451 -750h-116zM665.002 180.002h94v192zM922.002 180.002v-89h-55v-91h-108v91h-204v89l140 273h172v-273h55z" />
    <glyph glyph-name="questiondown" unicode="&#xbf;" horiz-adv-x="482" 
d="M451 -7l-0.00195312 -144c-44 -20 -97.667 -30 -161 -30c-65.333 0 -118.5 17.167 -159.5 51.5s-61.5 81.166 -61.5 140.499c0 32 6.33301 60.833 19 86.5s28.334 45.667 47.001 60s37.167 25.333 55.5 33s34.833 11.834 49.5 12.501l4 86h140l3 -159
c-57.333 0 -98.666 -8.33301 -123.999 -25s-38 -41.334 -38 -74.001c0 -25.333 7.5 -45.666 22.5 -60.999s37.167 -23 66.5 -23c46 0 91.667 15.333 137 46zM410.998 450c0 -26.667 -9.33301 -49.334 -28 -68.001s-41.334 -28 -68.001 -28c-17.333 0 -33.333 4.33301 -48 13
s-26.334 20.334 -35.001 35.001s-13 30.667 -13 48c0 26.667 9.33301 49.334 28 68.001s41.334 28 68.001 28s49.334 -9.33301 68.001 -28s28 -41.334 28 -68.001z" />
    <glyph glyph-name="Agrave" unicode="&#xc0;" horiz-adv-x="727" 
d="M428 760h-127l-118 188h155zM276 276l171 0.000976562l-7 26c-20.667 68.667 -37.5 127.167 -50.5 175.5s-20.833 79.5 -23.5 93.5l-4 21c-6 -38.667 -32.333 -135.334 -79 -290.001zM529 0.000976562l-43 145h-249l-43 -145h-169l237 711h205l236 -711h-174z" />
    <glyph glyph-name="Aacute" unicode="&#xc1;" horiz-adv-x="727" 
d="M556 948l-117 -188h-128l91 188h154zM276 276l171 0.000976562l-7 26c-20.667 68.667 -37.5 127.167 -50.5 175.5s-20.833 79.5 -23.5 93.5l-4 21c-6 -38.667 -32.333 -135.334 -79 -290.001zM529 0.000976562l-43 145h-249l-43 -145h-169l237 711h205l236 -711h-174z
" />
    <glyph glyph-name="Acircumflex" unicode="&#xc2;" horiz-adv-x="727" 
d="M365 862l-84 -102h-146l165 188h131l164 -188h-147zM276 276l171 0.000976562l-7 26c-20.667 68.667 -37.5 127.167 -50.5 175.5s-20.833 79.5 -23.5 93.5l-4 21c-6 -38.667 -32.333 -135.334 -79 -290.001zM529 0.000976562l-43 145h-249l-43 -145h-169l237 711h205
l236 -711h-174z" />
    <glyph glyph-name="Atilde" unicode="&#xc3;" horiz-adv-x="727" 
d="M496 935l79.001 -64c-30.667 -59.333 -78.334 -89 -143.001 -89c-23.333 0 -47.666 6.16699 -72.999 18.5s-43.333 18.5 -54 18.5c-18 0 -31.833 -3 -41.5 -9s-22.167 -18 -37.5 -36l-68 66c10.667 24 27 44.5 49 61.5s46 25.5 72 25.5s53.167 -6.16699 81.5 -18.5
s49.166 -18.5 62.499 -18.5c34.667 0 59 15 73 45zM276.001 276l171 0.000976562l-7 26c-20.667 68.667 -37.5 127.167 -50.5 175.5s-20.833 79.5 -23.5 93.5l-4 21c-6 -38.667 -32.333 -135.334 -79 -290.001zM529.001 0.000976562l-43 145h-249l-43 -145h-169l237 711h205
l236 -711h-174z" />
    <glyph glyph-name="Adieresis" unicode="&#xc4;" horiz-adv-x="727" 
d="M513 767c-25.333 0 -46.333 8.33301 -63 25s-25 37.334 -25 62.001c0 15.333 3.83301 29.5 11.5 42.5s18.167 23.333 31.5 31s28.333 11.5 45 11.5c24.667 0 45.334 -8.16699 62.001 -24.5s25 -36.5 25 -60.5c0 -24.667 -8.33301 -45.334 -25 -62.001
s-37.334 -25 -62.001 -25zM230 767c-25.333 0 -46.334 8.33203 -63.001 24.999s-25 37.334 -25 62.001c0 15.333 3.83301 29.5 11.5 42.5s18.167 23.333 31.5 31s28.333 11.5 45 11.5c24.667 0 45.167 -8.16699 61.5 -24.5s24.5 -36.5 24.5 -60.5
c0 -16 -3.66699 -30.667 -11 -44s-17.666 -23.833 -30.999 -31.5s-28 -11.5 -44 -11.5zM275.999 275.999l171 0.000976562l-7 26c-20.667 68.667 -37.5 127.167 -50.5 175.5s-20.833 79.5 -23.5 93.5l-4 21c-6 -38.667 -32.333 -135.334 -79 -290.001zM528.999 0l-43 145
h-249l-43 -145h-169l237 711h205l236 -711h-174z" />
    <glyph glyph-name="Aring" unicode="&#xc5;" horiz-adv-x="727" 
d="M368 955c-16.667 0 -30.167 -6 -40.5 -18s-15.5 -26 -15.5 -42s5.16699 -29.833 15.5 -41.5s23.833 -17.5 40.5 -17.5c10.667 0 20.334 2.83301 29.001 8.5s15.334 13 20.001 22s7 18.667 7 29s-2.33301 20 -7 29s-11.334 16.333 -20.001 22s-18.334 8.5 -29.001 8.5z
M367.5 749c-39.667 0 -73.333 13.833 -101 41.5s-41.5 61.5 -41.5 101.5s13.833 74 41.5 102s61.5 42 101.5 42c26 0 50 -6.5 72 -19.5s39.5 -30.5 52.5 -52.5s19.5 -46 19.5 -72c0 -39.333 -14.167 -73 -42.5 -101s-62.333 -42 -102 -42zM276.001 276l171 0.000976562
l-7 26c-20.667 68.667 -37.5 127.167 -50.5 175.5s-20.833 79.5 -23.5 93.5l-4 21c-6 -38.667 -32.333 -135.334 -79 -290.001zM529.001 0.000976562l-43 145h-249l-43 -145h-169l237 711h205l236 -711h-174z" />
    <glyph glyph-name="AE" unicode="&#xc6;" horiz-adv-x="990" 
d="M317 276l175 -0.000976562v372c-33.333 -85.333 -87 -200.666 -161 -345.999zM650 129.999h278v-130h-436v145h-241l-73 -145h-170l343 711h573v-130h-274v-161h244v-129h-244v-161z" />
    <glyph glyph-name="Ccedilla" unicode="&#xc7;" horiz-adv-x="645" 
d="M336 -54l118 -0.000976562c12.667 -19.333 19 -45.333 19 -78c0 -44 -16 -80 -48 -108s-79.333 -42 -142 -42v96c25.333 0 45 5.83301 59 17.5s21 28.167 21 49.5c0 20.667 -9 42.334 -27 65.001zM594 679.999v-156.002c-20 12.667 -39.833 22.667 -59.5 30
s-38.334 12.333 -56.001 15s-37.834 4 -60.501 4c-56.667 0 -104.5 -20 -143.5 -60s-58.5 -93.333 -58.5 -160c0 -65.333 19.333 -117.166 58 -155.499s88.667 -57.5 150 -57.5c19.333 0 38.833 1.83301 58.5 5.5s39.334 9.33398 59.001 17.001s37.167 17.167 52.5 28.5
v-159c-42.667 -26.667 -104.667 -40 -186 -40c-68 0 -129.667 14.833 -185 44.5s-99.333 72.167 -132 127.5s-49 118.333 -49 189c0 108.667 33.833 197 101.5 265s156.167 102 265.5 102c80.667 0 142.334 -13.333 185.001 -40z" />
    <glyph glyph-name="Egrave" unicode="&#xc8;" horiz-adv-x="573" 
d="M365 760h-128l-116 188h153zM232 130h279v-130h-442v711h438v-130h-275v-161h245v-129h-245v-161z" />
    <glyph glyph-name="Eacute" unicode="&#xc9;" horiz-adv-x="573" 
d="M479 948l-117 -188h-128l90 188h155zM232 130h279v-130h-442v711h438v-130h-275v-161h245v-129h-245v-161z" />
    <glyph glyph-name="Ecircumflex" unicode="&#xca;" horiz-adv-x="573" 
d="M287 862l-83 -102h-147l164 188h131l165 -188h-147zM232 291v-161h279v-130h-442v711h438v-130h-275v-161h245v-129h-245z" />
    <glyph glyph-name="Edieresis" unicode="&#xcb;" horiz-adv-x="573" 
d="M428 766c-24.667 0 -45.334 8.33301 -62.001 25s-25 37.334 -25 62.001c0 24 8.33301 44.167 25 60.5s37.334 24.5 62.001 24.5s45.5 -8.16699 62.5 -24.5s25.5 -36.5 25.5 -60.5c0 -24.667 -8.5 -45.334 -25.5 -62.001s-37.833 -25 -62.5 -25zM145 766
c-24.667 0 -45.334 8.33301 -62.001 25s-25 37.334 -25 62.001c0 24 8.33301 44.167 25 60.5s37.334 24.5 62.001 24.5s45.334 -8.16699 62.001 -24.5s25 -36.5 25 -60.5c0 -24.667 -8.33301 -45.334 -25 -62.001s-37.334 -25 -62.001 -25zM232 291v-161h279v-130h-442v711
h438v-130h-275v-161h245v-129h-245z" />
    <glyph glyph-name="Igrave" unicode="&#xcc;" horiz-adv-x="320" 
d="M79 0v711h162v-711h-162zM129 948l90 -188h-127l-118 188h155z" />
    <glyph glyph-name="Iacute" unicode="&#xcd;" horiz-adv-x="320" 
d="M79 0v711h162v-711h-162zM99 760l91 188h154l-117 -188h-128z" />
    <glyph glyph-name="Icircumflex" unicode="&#xce;" horiz-adv-x="320" 
d="M97 948h131l164 -188h-146l-83 102l-84 -102h-147zM79 0v711h162v-711h-162z" />
    <glyph glyph-name="Idieresis" unicode="&#xcf;" horiz-adv-x="320" 
d="M79 0v711h162v-711h-162zM-62 854c0 24 8.33203 44.166 24.999 60.499s37.667 24.5 63 24.5c24.667 0 45.167 -8.16699 61.5 -24.5s24.5 -36.5 24.5 -60.5c0 -16 -3.66699 -30.667 -11 -44s-17.666 -23.833 -30.999 -31.5s-28 -11.5 -44 -11.5
c-25.333 0 -46.333 8.33301 -63 25s-25 37.334 -25 62.001zM219.999 853.999c0 24 8.33301 44.167 25 60.5s37.667 24.5 63 24.5c24.667 0 45.5 -8.16699 62.5 -24.5s25.5 -36.5 25.5 -60.5c0 -24.667 -8.5 -45.334 -25.5 -62.001s-37.833 -25 -62.5 -25
c-25.333 0 -46.333 8.33301 -63 25s-25 37.334 -25 62.001z" />
    <glyph glyph-name="Eth" unicode="&#xd0;" horiz-adv-x="788" 
d="M305 133l73.999 -0.000976562c65.333 0 115.666 20.333 150.999 61s53 98.334 53 173.001c0 41.333 -7.66699 77.5 -23 108.5s-38.666 55.667 -69.999 74s-68.666 27.5 -111.999 27.5h-73v-163h145v-131h-145v-150zM137.999 710.999h245c53.333 0 102.833 -9 148.5 -27
s84.167 -42.5 115.5 -73.5s56 -67.5 74 -109.5s27 -86.667 27 -134c0 -75.333 -15.5 -140.833 -46.5 -196.5s-74 -98 -129 -127s-118.833 -43.5 -191.5 -43.5h-243v283h-69v131h69v297z" />
    <glyph glyph-name="Ntilde" unicode="&#xd1;" horiz-adv-x="734" 
d="M69 0l0.00195312 710.999h178l165 -295c23.333 -41.333 43.666 -80 60.999 -116s28.666 -61.333 33.999 -76l8 -23c-7.33301 51.333 -11 123 -11 215v295h162v-711h-178l-170 295c-22 38 -41.667 75.333 -59 112s-29 64 -35 82l-9 26
c10.667 -63.333 16 -136.666 16 -219.999v-295h-162zM504.002 934.999l77.999 -64c-30.667 -59.333 -78.334 -89 -143.001 -89c-23.333 0 -47.666 6.16699 -72.999 18.5s-43.333 18.5 -54 18.5c-17.333 0 -31 -3 -41 -9s-22.667 -18 -38 -36l-68 66
c10.667 24 27.334 44.5 50.001 61.5s46.667 25.5 72 25.5c26 0 53 -6.16699 81 -18.5s49 -18.5 63 -18.5c34 0 58.333 15 73 45z" />
    <glyph glyph-name="Ograve" unicode="&#xd2;" horiz-adv-x="775" 
d="M42 357c0 72 14.1689 135.668 42.502 191.001s68.666 98.166 120.999 128.499s113.166 45.5 182.499 45.5c106 0 190.167 -33.333 252.5 -100s93.5 -155 93.5 -265c0 -109.333 -31.333 -197.333 -94 -264s-146.667 -100 -252 -100s-189.333 33.333 -252 100
s-94 154.667 -94 264zM216.002 357.501c0 -66.333 15.5 -119.168 46.5 -158.501s72.833 -59 125.5 -59c34.667 0 65 8.83301 91 26.5s46 43 60 76s21 71.167 21 114.5c0 66.667 -15.5 119.667 -46.5 159s-72.833 59 -125.5 59s-94.5 -19.667 -125.5 -59
s-46.5 -92.166 -46.5 -158.499zM371.002 947.999l91 -188h-127l-118 188h154z" />
    <glyph glyph-name="Oacute" unicode="&#xd3;" horiz-adv-x="775" 
d="M328 760l91 188h154l-118 -188h-127zM42 357c0 72 14.1689 135.668 42.502 191.001s68.666 98.166 120.999 128.499s113.166 45.5 182.499 45.5c106 0 190.167 -33.333 252.5 -100s93.5 -155 93.5 -265c0 -109.333 -31.333 -197.333 -94 -264s-146.667 -100 -252 -100
s-189.333 33.333 -252 100s-94 154.667 -94 264zM216.002 357.501c0 -66.333 15.5 -119.168 46.5 -158.501s72.833 -59 125.5 -59c34.667 0 65 8.83301 91 26.5s46 43 60 76s21 71.167 21 114.5c0 66.667 -15.5 119.667 -46.5 159s-72.833 59 -125.5 59
s-94.5 -19.667 -125.5 -59s-46.5 -92.166 -46.5 -158.499z" />
    <glyph glyph-name="Ocircumflex" unicode="&#xd4;" horiz-adv-x="775" 
d="M216 357.5c0 -66.333 15.5 -119.168 46.5 -158.501s72.833 -59 125.5 -59c34.667 0 65 8.83301 91 26.5s46 43 60 76s21 71.167 21 114.5c0 66.667 -15.5 119.667 -46.5 159s-72.833 59 -125.5 59s-94.5 -19.667 -125.5 -59s-46.5 -92.166 -46.5 -158.499zM42 356.998
c0 72 14.1689 135.668 42.502 191.001s68.666 98.166 120.999 128.499s113.166 45.5 182.499 45.5c106 0 190.167 -33.333 252.5 -100s93.5 -155 93.5 -265c0 -109.333 -31.333 -197.333 -94 -264s-146.667 -100 -252 -100s-189.333 33.333 -252 100s-94 154.667 -94 264z
M327.002 947.999h130l165 -188h-146l-84 102l-83 -102h-146z" />
    <glyph glyph-name="Otilde" unicode="&#xd5;" horiz-adv-x="775" 
d="M42 357c0 72 14.1689 135.668 42.502 191.001s68.666 98.166 120.999 128.499s113.166 45.5 182.499 45.5c106 0 190.167 -33.333 252.5 -100s93.5 -155 93.5 -265c0 -109.333 -31.333 -197.333 -94 -264s-146.667 -100 -252 -100s-189.333 33.333 -252 100
s-94 154.667 -94 264zM216.002 357.501c0 -66.333 15.5 -119.168 46.5 -158.501s72.833 -59 125.5 -59c34.667 0 65 8.83301 91 26.5s46 43 60 76s21 71.167 21 114.5c0 66.667 -15.5 119.667 -46.5 159s-72.833 59 -125.5 59s-94.5 -19.667 -125.5 -59
s-46.5 -92.166 -46.5 -158.499zM519.002 933.999l78.002 -64c-14 -28 -33.333 -49.833 -58 -65.5s-53.334 -23.5 -86.001 -23.5c-22.667 0 -46.834 6.16699 -72.501 18.5s-43.5 18.5 -53.5 18.5c-18 0 -31.833 -3 -41.5 -9s-22.167 -18.333 -37.5 -37l-69 67
c11.333 24 28.166 44.5 50.499 61.5s46.5 25.5 72.5 25.5c20 0 38.667 -3.16699 56 -9.5s33 -12.5 47 -18.5s27.333 -9 40 -9c34.667 0 59.334 15 74.001 45z" />
    <glyph glyph-name="Odieresis" unicode="&#xd6;" horiz-adv-x="775" 
d="M169 854c0 24 8.33301 44.167 25 60.5s37.334 24.5 62.001 24.5s45.334 -8.16699 62.001 -24.5s25 -36.5 25 -60.5c0 -24.667 -8.33301 -45.334 -25 -62.001s-37.334 -25 -62.001 -25s-45.334 8.33301 -62.001 25s-25 37.334 -25 62.001zM451 854
c0 15.333 3.83301 29.5 11.5 42.5s18.167 23.333 31.5 31s28.333 11.5 45 11.5c24.667 0 45.334 -8.16699 62.001 -24.5s25 -36.5 25 -60.5c0 -24.667 -8.33301 -45.334 -25 -62.001s-37.334 -25 -62.001 -25c-25.333 0 -46.333 8.33301 -63 25s-25 37.334 -25 62.001z
M42 357c0 72 14.1689 135.668 42.502 191.001s68.666 98.166 120.999 128.499s113.166 45.5 182.499 45.5c106 0 190.167 -33.333 252.5 -100s93.5 -155 93.5 -265c0 -109.333 -31.333 -197.333 -94 -264s-146.667 -100 -252 -100s-189.333 33.333 -252 100
s-94 154.667 -94 264zM216.002 357.501c0 -66.333 15.5 -119.168 46.5 -158.501s72.833 -59 125.5 -59c34.667 0 65 8.83301 91 26.5s46 43 60 76s21 71.167 21 114.5c0 66.667 -15.5 119.667 -46.5 159s-72.833 59 -125.5 59s-94.5 -19.667 -125.5 -59
s-46.5 -92.166 -46.5 -158.499z" />
    <glyph glyph-name="multiply" unicode="&#xd7;" horiz-adv-x="558" 
d="M514 220l-98 -96l-137 136l-134 -134l-100 99l135 134l-136 135l97 97l136 -135l134 134l101 -99l-135 -135z" />
    <glyph glyph-name="Oslash" unicode="&#xd8;" horiz-adv-x="752" 
d="M547 470l-237 -323.001c22.667 -10 48 -15 76 -15c54.667 0 98.167 20.333 130.5 61s48.5 95.334 48.5 164.001c0 41.333 -6 79 -18 113zM226 242.999l240 323c-25.333 11.333 -52 17 -80 17c-54.667 0 -98.167 -20.333 -130.5 -61s-48.5 -95.667 -48.5 -165
c0 -44 6.33301 -82 19 -114zM733 720.999l-83 -111.999c54.667 -64.667 82 -148.667 82 -252c0 -109.333 -31.333 -197.333 -94 -264s-146.667 -100 -252 -100c-61.333 0 -116.333 12 -165 36l-26 -36h-154l83 111c-56 65.333 -84 149.666 -84 252.999
c0 109.333 31.5 197.5 94.5 264.5s146.833 100.5 251.5 100.5c65.333 0 121.333 -12 168 -36l26 35h153z" />
    <glyph glyph-name="Ugrave" unicode="&#xd9;" horiz-adv-x="704" 
d="M479 274v437.003h163v-436c0 -92.667 -26.167 -163.334 -78.5 -212.001s-122.833 -73 -211.5 -73c-86.667 0 -156.5 24.167 -209.5 72.5s-79.5 116.833 -79.5 205.5v443h163v-442c0 -24.667 3.33301 -45.834 10 -63.501s16 -31.334 28 -41.001s25.333 -16.667 40 -21
s30.667 -6.5 48 -6.5c84.667 0 127 45.667 127 137zM334 948.003l90 -188h-127l-118 188h155z" />
    <glyph glyph-name="Uacute" unicode="&#xda;" horiz-adv-x="704" 
d="M303 760l90 188h154l-116 -188h-128zM479 274v437.003h163v-436c0 -92.667 -26.167 -163.334 -78.5 -212.001s-122.833 -73 -211.5 -73c-86.667 0 -156.5 24.167 -209.5 72.5s-79.5 116.833 -79.5 205.5v443h163v-442c0 -24.667 3.33301 -45.834 10 -63.501
s16 -31.334 28 -41.001s25.333 -16.667 40 -21s30.667 -6.5 48 -6.5c84.667 0 127 45.667 127 137z" />
    <glyph glyph-name="Ucircumflex" unicode="&#xdb;" horiz-adv-x="704" 
d="M479 274v437.003h163v-436c0 -92.667 -26.167 -163.334 -78.5 -212.001s-122.833 -73 -211.5 -73c-86.667 0 -156.5 24.167 -209.5 72.5s-79.5 116.833 -79.5 205.5v443h163v-442c0 -24.667 3.33301 -45.834 10 -63.501s16 -31.334 28 -41.001s25.333 -16.667 40 -21
s30.667 -6.5 48 -6.5c84.667 0 127 45.667 127 137zM284 948.003h131l165 -188h-146l-84 102l-83 -102h-146z" />
    <glyph glyph-name="Udieresis" unicode="&#xdc;" horiz-adv-x="704" 
d="M129 853c0 24 8.33301 44.167 25 60.5s37.334 24.5 62.001 24.5s45.334 -8.16699 62.001 -24.5s25 -36.5 25 -60.5c0 -24.667 -8.33301 -45.334 -25 -62.001s-37.334 -25 -62.001 -25s-45.334 8.33301 -62.001 25s-25 37.334 -25 62.001zM411 853
c0 24 8.33398 44.167 25.001 60.5s37.667 24.5 63 24.5c24 0 44.5 -8.16699 61.5 -24.5s25.5 -36.5 25.5 -60.5c0 -24.667 -8.33301 -45.334 -25 -62.001s-37.334 -25 -62.001 -25c-25.333 0 -46.333 8.33301 -63 25s-25 37.334 -25 62.001zM479.001 274v437.003h163v-436
c0 -92.667 -26.167 -163.334 -78.5 -212.001s-122.833 -73 -211.5 -73c-86.667 0 -156.5 24.167 -209.5 72.5s-79.5 116.833 -79.5 205.5v443h163v-442c0 -24.667 3.33301 -45.834 10 -63.501s16 -31.334 28 -41.001s25.333 -16.667 40 -21s30.667 -6.5 48 -6.5
c84.667 0 127 45.667 127 137z" />
    <glyph glyph-name="Yacute" unicode="&#xdd;" horiz-adv-x="677" 
d="M535 948l-117 -188h-128l91 188h154zM664 711l-245.001 -449v-262h-163v261l-243 450h191l43 -103c22.667 -53.333 41.334 -99 56.001 -137s24 -62.667 28 -74l6 -17c6.66699 32 37.667 108 93 228l46 103h188z" />
    <glyph glyph-name="Thorn" unicode="&#xde;" horiz-adv-x="593" 
d="M231 245h69.998c37.333 0 65.333 10.167 84 30.5s28 46.5 28 78.5c0 10.667 -1 21 -3 31s-5.66699 20 -11 30s-12.166 18.667 -20.499 26s-19.166 13.333 -32.499 18s-28.333 7 -45 7h-70v-221zM230.998 595l82 0.000976562c79.333 0 143.333 -22.167 192 -66.5
s73 -100.5 73 -168.5c0 -52.667 -12.5 -97.834 -37.5 -135.501s-57.167 -65.167 -96.5 -82.5s-83 -26 -131 -26h-82v-116h-162v711h162v-116z" />
    <glyph glyph-name="germandbls" unicode="&#xdf;" horiz-adv-x="630" 
d="M296 15l-0.00195312 129.996c20 -13.333 37.667 -22.333 53 -27s33 -7 53 -7c18.667 0 34.167 4.83301 46.5 14.5s18.5 23.167 18.5 40.5c0 12 -3.83301 23.5 -11.5 34.5s-17.167 20.5 -28.5 28.5s-23.666 17 -36.999 27s-25.666 19.833 -36.999 29.5
s-20.833 21.834 -28.5 36.501s-11.5 30.667 -11.5 48c0 21.333 5 41.833 15 61.5s20 37.834 30 54.501s15 32.667 15 48c0 18.667 -5.33301 33.334 -16 44.001s-27 16 -49 16c-31.333 0 -55 -7.83301 -71 -23.5s-24 -40.834 -24 -75.501v-495h-150v486
c0 76.667 20.5 136.167 61.5 178.5s99.167 63.5 174.5 63.5c68 0 123.333 -18 166 -54s64 -78.333 64 -127c0 -21.333 -3 -41 -9 -59s-12.5 -31.833 -19.5 -41.5s-13.5 -20 -19.5 -31s-9 -20.833 -9 -29.5c0 -6.66699 4.66699 -14.167 14 -22.5s20.833 -17.666 34.5 -27.999
s27.167 -22.333 40.5 -36s24.833 -32 34.5 -55s14.5 -48.5 14.5 -76.5c0 -53.333 -17.333 -96.166 -52 -128.499s-81 -48.5 -139 -48.5c-56.667 0 -97.667 8 -123 24z" />
    <glyph glyph-name="agrave" unicode="&#xe0;" horiz-adv-x="543" 
d="M344 584h-128l-117 187h154zM328 219l-50.001 -0.000976562c-25.333 0 -45.166 -5.33301 -59.499 -16s-21.5 -25 -21.5 -43c0 -36.667 21 -55 63 -55c21.333 0 38 6.83301 50 20.5s18 31.834 18 54.501v39zM77.999 369.999l0.00195312 139.001
c18 9.33301 43.167 17.5 75.5 24.5s68.166 10.5 107.499 10.5c75.333 0 131.666 -16.333 168.999 -49s56 -83.334 56 -152.001v-343h-150v65c-22 -45.333 -66.333 -68 -133 -68c-52 0 -92.667 14.667 -122 44s-44 66 -44 110c0 51.333 18.833 91.333 56.5 120
s93.5 43 167.5 43h67v37c0 22 -6.83301 38.833 -20.5 50.5s-36.834 17.5 -69.501 17.5c-57.333 0 -110.666 -16.333 -159.999 -49z" />
    <glyph glyph-name="aacute" unicode="&#xe1;" horiz-adv-x="543" 
d="M449 771l-116 -187h-128l91 187h153zM328 219l-50.001 -0.000976562c-25.333 0 -45.166 -5.33301 -59.499 -16s-21.5 -25 -21.5 -43c0 -36.667 21 -55 63 -55c21.333 0 38 6.83301 50 20.5s18 31.834 18 54.501v39zM77.999 369.999l0.00195312 139.001
c18 9.33301 43.167 17.5 75.5 24.5s68.166 10.5 107.499 10.5c75.333 0 131.666 -16.333 168.999 -49s56 -83.334 56 -152.001v-343h-150v65c-22 -45.333 -66.333 -68 -133 -68c-52 0 -92.667 14.667 -122 44s-44 66 -44 110c0 51.333 18.833 91.333 56.5 120
s93.5 43 167.5 43h67v37c0 22 -6.83301 38.833 -20.5 50.5s-36.834 17.5 -69.501 17.5c-57.333 0 -110.666 -16.333 -159.999 -49z" />
    <glyph glyph-name="acircumflex" unicode="&#xe2;" horiz-adv-x="543" 
d="M270 686l-84 -102h-146l165 187h131l164 -187h-147zM328 219l-50.001 -0.000976562c-25.333 0 -45.166 -5.33301 -59.499 -16s-21.5 -25 -21.5 -43c0 -36.667 21 -55 63 -55c21.333 0 38 6.83301 50 20.5s18 31.834 18 54.501v39zM77.999 369.999l0.00195312 139.001
c18 9.33301 43.167 17.5 75.5 24.5s68.166 10.5 107.499 10.5c75.333 0 131.666 -16.333 168.999 -49s56 -83.334 56 -152.001v-343h-150v65c-22 -45.333 -66.333 -68 -133 -68c-52 0 -92.667 14.667 -122 44s-44 66 -44 110c0 51.333 18.833 91.333 56.5 120
s93.5 43 167.5 43h67v37c0 22 -6.83301 38.833 -20.5 50.5s-36.834 17.5 -69.501 17.5c-57.333 0 -110.666 -16.333 -159.999 -49z" />
    <glyph glyph-name="atilde" unicode="&#xe3;" horiz-adv-x="543" 
d="M401 759l77.999 -64c-30.667 -59.333 -78.334 -89 -143.001 -89c-23.333 0 -47.666 6.16699 -72.999 18.5s-43.333 18.5 -54 18.5c-17.333 0 -31 -3 -41 -9s-22.667 -18.333 -38 -37l-69 67c10.667 24 27.167 44.5 49.5 61.5s46.5 25.5 72.5 25.5s53 -6.16699 81 -18.5
s49 -18.5 63 -18.5c34.667 0 59.334 15 74.001 45zM327.999 219l-50.001 -0.000976562c-25.333 0 -45.166 -5.33301 -59.499 -16s-21.5 -25 -21.5 -43c0 -36.667 21 -55 63 -55c21.333 0 38 6.83301 50 20.5s18 31.834 18 54.501v39zM77.998 369.999l0.00195312 139.001
c18 9.33301 43.167 17.5 75.5 24.5s68.166 10.5 107.499 10.5c75.333 0 131.666 -16.333 168.999 -49s56 -83.334 56 -152.001v-343h-150v65c-22 -45.333 -66.333 -68 -133 -68c-52 0 -92.667 14.667 -122 44s-44 66 -44 110c0 51.333 18.833 91.333 56.5 120
s93.5 43 167.5 43h67v37c0 22 -6.83301 38.833 -20.5 50.5s-36.834 17.5 -69.501 17.5c-57.333 0 -110.666 -16.333 -159.999 -49z" />
    <glyph glyph-name="adieresis" unicode="&#xe4;" horiz-adv-x="543" 
d="M421 591c-16.667 0 -31.6689 3.83398 -45.002 11.501s-23.666 18.167 -30.999 31.5s-11 28 -11 44c0 24 8.33301 44.167 25 60.5s37.334 24.5 62.001 24.5s45.5 -8.33301 62.5 -25s25.5 -36.667 25.5 -60c0 -24.667 -8.5 -45.334 -25.5 -62.001s-37.833 -25 -62.5 -25z
M137.998 591.001c-12.667 0 -24.3311 2.33203 -34.998 6.99902s-19.834 10.834 -27.501 18.501s-13.834 16.834 -18.501 27.501s-7 22 -7 34c0 24 8.5 44.167 25.5 60.5s37.833 24.5 62.5 24.5s45.334 -8.16699 62.001 -24.5s25 -36.5 25 -60.5
c0 -24.667 -8.33301 -45.334 -25 -62.001s-37.334 -25 -62.001 -25zM328.001 219l-50.001 -0.000976562c-25.333 0 -45.166 -5.33301 -59.499 -16s-21.5 -25 -21.5 -43c0 -36.667 21 -55 63 -55c21.333 0 38 6.83301 50 20.5s18 31.834 18 54.501v39zM78 369.999
l0.00195312 139.001c18 9.33301 43.167 17.5 75.5 24.5s68.166 10.5 107.499 10.5c75.333 0 131.666 -16.333 168.999 -49s56 -83.334 56 -152.001v-343h-150v65c-22 -45.333 -66.333 -68 -133 -68c-52 0 -92.667 14.667 -122 44s-44 66 -44 110
c0 51.333 18.833 91.333 56.5 120s93.5 43 167.5 43h67v37c0 22 -6.83301 38.833 -20.5 50.5s-36.834 17.5 -69.501 17.5c-57.333 0 -110.666 -16.333 -159.999 -49z" />
    <glyph glyph-name="aring" unicode="&#xe5;" horiz-adv-x="543" 
d="M274 779c-16.667 0 -30.167 -6 -40.5 -18s-15.5 -26 -15.5 -42s5.16699 -29.833 15.5 -41.5s23.833 -17.5 40.5 -17.5s30.334 5.83301 41.001 17.5s16 25.5 16 41.5s-5.33301 30 -16 42s-24.334 18 -41.001 18zM274 573c-26 0 -49.999 6.33496 -71.999 19.002
s-39.333 30 -52 52s-19 46 -19 72c0 39.333 14 73.166 42 101.499s61.667 42.5 101 42.5s73.166 -14.167 101.499 -42.5s42.5 -62.333 42.5 -102s-14 -73.334 -42 -101.001s-62 -41.5 -102 -41.5zM328.001 219.002l-50.001 -0.000976562
c-25.333 0 -45.166 -5.33301 -59.499 -16s-21.5 -25 -21.5 -43c0 -36.667 21 -55 63 -55c21.333 0 38 6.83301 50 20.5s18 31.834 18 54.501v39zM78 370.001l0.00195312 139.001c18 9.33301 43.167 17.5 75.5 24.5s68.166 10.5 107.499 10.5
c75.333 0 131.666 -16.333 168.999 -49s56 -83.334 56 -152.001v-343h-150v65c-22 -45.333 -66.333 -68 -133 -68c-52 0 -92.667 14.667 -122 44s-44 66 -44 110c0 51.333 18.833 91.333 56.5 120s93.5 43 167.5 43h67v37c0 22 -6.83301 38.833 -20.5 50.5
s-36.834 17.5 -69.501 17.5c-57.333 0 -110.666 -16.333 -159.999 -49z" />
    <glyph glyph-name="ae" unicode="&#xe6;" horiz-adv-x="851" 
d="M334 180l0.000976562 38.999h-51c-16.667 0 -31.167 -2.5 -43.5 -7.5s-21.5 -12 -27.5 -21s-9 -19.167 -9 -30.5c0 -36.667 20.667 -55 62 -55c21.333 0 38.166 6.83301 50.499 20.5s18.5 31.834 18.5 54.501zM666.001 315.999v12c-4.66699 63.333 -32 95 -82 95
c-24 0 -45.5 -9.16699 -64.5 -27.5s-31.833 -44.833 -38.5 -79.5h185zM801.001 206.999l-314.996 0.000976562c11.333 -30 30 -53 56 -69s57.333 -24 94 -24c54.667 0 102 15.333 142 46v-129c-18 -12 -42 -21 -72 -27s-59.667 -9 -89 -9c-40 0 -79.167 8 -117.5 24
s-67.166 40.667 -86.499 74c-6.66699 -16.667 -16.834 -31.834 -30.501 -45.501s-33.834 -25.667 -60.501 -36s-57.334 -15.5 -92.001 -15.5c-30.667 0 -57.834 3.66699 -81.501 11s-43.167 17.833 -58.5 31.5s-27.166 30.167 -35.499 49.5s-12.5 40.333 -12.5 63
c0 51.333 18.833 91.333 56.5 120s93.5 43 167.5 43h68v37c0 22 -6.83301 38.833 -20.5 50.5s-36.834 17.5 -69.501 17.5c-57.333 0 -111 -16.333 -161 -49v139c42.667 23.333 100 35 172 35c38 0 70.833 -7 98.5 -21s47.167 -32.667 58.5 -56
c16.667 22.667 39.667 40.5 69 53.5s61.666 19.5 96.999 19.5c71.333 0 127.833 -20.833 169.5 -62.5s62.5 -104.167 62.5 -187.5c0 -15.333 -3 -43 -9 -83z" />
    <glyph glyph-name="ccedilla" unicode="&#xe7;" horiz-adv-x="494" 
d="M193 266c2 -46.667 15.8311 -83.167 41.498 -109.5s59.5 -39.5 101.5 -39.5c44.667 0 87.334 12.333 128.001 37v-128c-41.333 -22.667 -91.666 -34 -150.999 -34c-80 0 -146 25.333 -198 76s-78 116.667 -78 198c1.33301 80 27.333 146.167 78 198.5
s119.667 78.5 207 78.5c56.667 0 104 -10 142 -30v-132c-36 22.667 -77.667 34 -125 34c-43.333 0 -78.5 -12.833 -105.5 -38.5s-40.5 -62.5 -40.5 -110.5zM388.998 -132c0 -20.667 -3.66699 -40.001 -11 -58.001s-18.5 -34 -33.5 -48s-34.833 -24.833 -59.5 -32.5
s-52.667 -11.5 -84 -11.5v96c16.667 0 31 2.66699 43 8s20.833 13 26.5 23s8.5 22 8.5 36c0 20.667 -9 42.334 -27 65.001h119c12 -19.333 18 -45.333 18 -78z" />
    <glyph glyph-name="egrave" unicode="&#xe8;" horiz-adv-x="561" 
d="M354 584h-127l-118 187h155zM372 316l-0.00195312 13c-5.33301 62.667 -32.666 94 -81.999 94c-7.33301 0 -14.666 -0.833008 -21.999 -2.5s-14.5 -4.5 -21.5 -8.5s-13.667 -8.83301 -20 -14.5s-12 -12.5 -17 -20.5s-9.5 -17.167 -13.5 -27.5s-7.33301 -21.5 -10 -33.5
h186zM482.998 160l0.00292969 -129.002c-18 -12 -42.833 -21 -74.5 -27s-62.834 -9 -93.501 -9c-58.667 0 -109.334 12 -152.001 36s-74.334 56.333 -95.001 97s-31 87.334 -31 140.001c0 84.667 23.5 151.167 70.5 199.5s105.5 72.5 175.5 72.5
c72 0 128.833 -20.833 170.5 -62.5s62.5 -104.167 62.5 -187.5c0 -15.333 -2.66699 -43 -8 -83h-315c10 -29.333 28.167 -52.166 54.5 -68.499s57.833 -24.5 94.5 -24.5c54 0 101 15.333 141 46z" />
    <glyph glyph-name="eacute" unicode="&#xe9;" horiz-adv-x="561" 
d="M482 770l-117 -187h-128l91 187h154zM372 316l-0.00195312 13c-5.33301 62.667 -32.666 94 -81.999 94c-7.33301 0 -14.666 -0.833008 -21.999 -2.5s-14.5 -4.5 -21.5 -8.5s-13.667 -8.83301 -20 -14.5s-12 -12.5 -17 -20.5s-9.5 -17.167 -13.5 -27.5
s-7.33301 -21.5 -10 -33.5h186zM482.998 160l0.00292969 -129.002c-18 -12 -42.833 -21 -74.5 -27s-62.834 -9 -93.501 -9c-58.667 0 -109.334 12 -152.001 36s-74.334 56.333 -95.001 97s-31 87.334 -31 140.001c0 84.667 23.5 151.167 70.5 199.5s105.5 72.5 175.5 72.5
c72 0 128.833 -20.833 170.5 -62.5s62.5 -104.167 62.5 -187.5c0 -15.333 -2.66699 -43 -8 -83h-315c10 -29.333 28.167 -52.166 54.5 -68.499s57.833 -24.5 94.5 -24.5c54 0 101 15.333 141 46z" />
    <glyph glyph-name="ecircumflex" unicode="&#xea;" horiz-adv-x="561" 
d="M283 686l-82 -102h-147l164 187h131l165 -187h-147zM372 316l-0.00195312 13c-5.33301 62.667 -32.666 94 -81.999 94c-7.33301 0 -14.666 -0.833008 -21.999 -2.5s-14.5 -4.5 -21.5 -8.5s-13.667 -8.83301 -20 -14.5s-12 -12.5 -17 -20.5s-9.5 -17.167 -13.5 -27.5
s-7.33301 -21.5 -10 -33.5h186zM482.998 160l0.00292969 -129.002c-18 -12 -42.833 -21 -74.5 -27s-62.834 -9 -93.501 -9c-58.667 0 -109.334 12 -152.001 36s-74.334 56.333 -95.001 97s-31 87.334 -31 140.001c0 84.667 23.5 151.167 70.5 199.5s105.5 72.5 175.5 72.5
c72 0 128.833 -20.833 170.5 -62.5s62.5 -104.167 62.5 -187.5c0 -15.333 -2.66699 -43 -8 -83h-315c10 -29.333 28.167 -52.166 54.5 -68.499s57.833 -24.5 94.5 -24.5c54 0 101 15.333 141 46z" />
    <glyph glyph-name="edieresis" unicode="&#xeb;" horiz-adv-x="561" 
d="M441 591c-16.667 0 -31.667 3.83398 -45 11.501s-23.833 18.167 -31.5 31.5s-11.5 28 -11.5 44c0 24 8.33301 44.167 25 60.5s37.667 24.5 63 24.5c24.667 0 45.334 -8.33301 62.001 -25s25 -36.667 25 -60c0 -24.667 -8.33301 -45.334 -25 -62.001
s-37.334 -25 -62.001 -25zM159 591.001c-16.667 0 -31.667 3.83398 -45 11.501s-23.833 18.167 -31.5 31.5s-11.5 28 -11.5 44c0 24 8.33301 44.167 25 60.5s37.667 24.5 63 24.5c24 0 44.333 -8.16699 61 -24.5s25 -36.5 25 -60.5
c0 -24.667 -8.16699 -45.334 -24.5 -62.001s-36.833 -25 -61.5 -25zM372 316.002l-0.00195312 13c-5.33301 62.667 -32.666 94 -81.999 94c-7.33301 0 -14.666 -0.833008 -21.999 -2.5s-14.5 -4.5 -21.5 -8.5s-13.667 -8.83301 -20 -14.5s-12 -12.5 -17 -20.5
s-9.5 -17.167 -13.5 -27.5s-7.33301 -21.5 -10 -33.5h186zM482.998 160.002l0.00292969 -129.002c-18 -12 -42.833 -21 -74.5 -27s-62.834 -9 -93.501 -9c-58.667 0 -109.334 12 -152.001 36s-74.334 56.333 -95.001 97s-31 87.334 -31 140.001
c0 84.667 23.5 151.167 70.5 199.5s105.5 72.5 175.5 72.5c72 0 128.833 -20.833 170.5 -62.5s62.5 -104.167 62.5 -187.5c0 -15.333 -2.66699 -43 -8 -83h-315c10 -29.333 28.167 -52.166 54.5 -68.499s57.833 -24.5 94.5 -24.5c54 0 101 15.333 141 46z" />
    <glyph glyph-name="igrave" unicode="&#xec;" horiz-adv-x="290" 
d="M69 0v535h153v-535h-153zM108 771l92 -187h-128l-117 187h153z" />
    <glyph glyph-name="iacute" unicode="&#xed;" horiz-adv-x="290" 
d="M69 0v535h153v-535h-153zM90 584l90 187h155l-118 -187h-127z" />
    <glyph glyph-name="icircumflex" unicode="&#xee;" horiz-adv-x="290" 
d="M81 771h131l165 -187h-147l-84 102l-83 -102h-146zM69 0v535h153v-535h-153z" />
    <glyph glyph-name="idieresis" unicode="&#xef;" horiz-adv-x="290" 
d="M69 0v535h153v-535h-153zM-82 678c0 15.333 3.66992 29.5 11.0029 42.5s17.666 23.333 30.999 31s28.333 11.5 45 11.5c16 0 30.667 -3.83301 44 -11.5s23.833 -18 31.5 -31s11.5 -27.167 11.5 -42.5c0 -24.667 -8.33301 -45.334 -25 -62.001s-37.334 -25 -62.001 -25
s-45.334 8.33301 -62.001 25s-25 37.334 -25 62.001zM201.003 678c0 15.333 3.66797 29.5 11.001 42.5s17.833 23.333 31.5 31s28.5 11.5 44.5 11.5c16.667 0 31.667 -3.83301 45 -11.5s23.833 -18 31.5 -31s11.5 -27.167 11.5 -42.5c0 -24.667 -8.5 -45.334 -25.5 -62.001
s-37.833 -25 -62.5 -25s-45.334 8.33301 -62.001 25s-25 37.334 -25 62.001z" />
    <glyph glyph-name="eth" unicode="&#xf0;" horiz-adv-x="587" 
d="M281.5 127c27 0 49.332 8.66602 66.999 25.999s29.167 49 34.5 95c-29.333 31.333 -63.666 47 -102.999 47c-27.333 0 -48.5 -8 -63.5 -24s-22.5 -38 -22.5 -66c0 -23.333 7.83301 -42.166 23.5 -56.499s37 -21.5 64 -21.5zM508.999 632.999l-68.999 -32.999
c20.667 -29.333 38.5 -61.166 53.5 -95.499s26.167 -68.333 33.5 -102s11 -66.167 11 -97.5c0 -94.667 -21.833 -170.834 -65.5 -228.501s-107.167 -86.5 -190.5 -86.5c-76.667 0 -136.667 21.667 -180 65s-65 96.666 -65 159.999c0 62.667 18.667 113.167 56 151.5
s85.666 57.5 144.999 57.5c57.333 0 105.333 -18 144 -54c-8.66699 60 -30.667 116.667 -66 170l-150 -73v85l102 50c-34 36.667 -78.333 73 -133 109h194c21.333 -15.333 41.333 -32 60 -50l120 58v-86z" />
    <glyph glyph-name="ntilde" unicode="&#xf1;" 
d="M439 759l78 -64.001c-9.33301 -18 -20.833 -33.667 -34.5 -47s-29.834 -23.666 -48.501 -30.999s-39 -11 -61 -11c-23.333 0 -47.5 6.16699 -72.5 18.5s-42.833 18.5 -53.5 18.5c-17.333 0 -31 -3 -41 -9s-22.667 -18.333 -38 -37l-69 67
c10.667 24 27.334 44.5 50.001 61.5s46.667 25.5 72 25.5c26 0 53.167 -6.16699 81.5 -18.5s49.166 -18.5 62.499 -18.5c34.667 0 59.334 15 74.001 45zM217 534.999l-0.000976562 -90.999c9.33301 19.333 21.5 36.166 36.5 50.499s33.167 25.5 54.5 33.5s45 12 71 12
c54.667 0 97.5 -16.333 128.5 -49s46.5 -80.667 46.5 -144v-347h-154v318c0 32 -7.5 56.167 -22.5 72.5s-35.833 24.5 -62.5 24.5c-18 0 -34.167 -4.5 -48.5 -13.5s-26.166 -23.667 -35.499 -44s-14 -45.5 -14 -75.5v-282h-154v535h154z" />
    <glyph glyph-name="ograve" unicode="&#xf2;" horiz-adv-x="597" 
d="M300 -8c-84 0 -148.832 25.166 -194.499 75.499s-68.5 114.833 -68.5 193.5c0 82 23.833 149.5 71.5 202.5s111.5 79.5 191.5 79.5c83.333 0 147.666 -25.667 192.999 -77s68 -116.666 68 -195.999c0 -81.333 -23 -148 -69 -200s-110 -78 -192 -78zM299.001 421.999
c-34 0 -59.5 -14.5 -76.5 -43.5s-25.5 -66.167 -25.5 -111.5c0 -29.333 3.5 -55.5 10.5 -78.5s18.5 -41.667 34.5 -56s35.667 -21.5 59 -21.5c34 0 59.167 14.167 75.5 42.5s24.5 65.5 24.5 111.5c0 47.333 -8 85.333 -24 114s-42 43 -78 43zM282.001 769.999l91 -187h-127
l-117 187h153z" />
    <glyph glyph-name="oacute" unicode="&#xf3;" horiz-adv-x="597" 
d="M248 583l91 187h153l-116 -187h-128zM300 -8c-84 0 -148.832 25.166 -194.499 75.499s-68.5 114.833 -68.5 193.5c0 82 23.833 149.5 71.5 202.5s111.5 79.5 191.5 79.5c83.333 0 147.666 -25.667 192.999 -77s68 -116.666 68 -195.999c0 -81.333 -23 -148 -69 -200
s-110 -78 -192 -78zM299.001 421.999c-34 0 -59.5 -14.5 -76.5 -43.5s-25.5 -66.167 -25.5 -111.5c0 -29.333 3.5 -55.5 10.5 -78.5s18.5 -41.667 34.5 -56s35.667 -21.5 59 -21.5c34 0 59.167 14.167 75.5 42.5s24.5 65.5 24.5 111.5c0 47.333 -8 85.333 -24 114
s-42 43 -78 43z" />
    <glyph glyph-name="ocircumflex" unicode="&#xf4;" horiz-adv-x="597" 
d="M299 422c-34 0 -59.5 -14.5 -76.5 -43.5s-25.5 -66.167 -25.5 -111.5c0 -29.333 3.5 -55.5 10.5 -78.5s18.5 -41.667 34.5 -56s35.667 -21.5 59 -21.5c34 0 59.167 14.167 75.5 42.5s24.5 65.5 24.5 111.5c0 47.333 -8 85.333 -24 114s-42 43 -78 43zM300 -8
c-84 0 -148.832 25.166 -194.499 75.499s-68.5 114.833 -68.5 193.5c0 82 23.833 149.5 71.5 202.5s111.5 79.5 191.5 79.5c83.333 0 147.666 -25.667 192.999 -77s68 -116.666 68 -195.999c0 -81.333 -23 -148 -69 -200s-110 -78 -192 -78zM237.001 769.999h131l165 -187
h-147l-83 102l-84 -102h-146z" />
    <glyph glyph-name="otilde" unicode="&#xf5;" horiz-adv-x="597" 
d="M300 -8c-84 0 -148.832 25.166 -194.499 75.499s-68.5 114.833 -68.5 193.5c0 82 23.833 149.5 71.5 202.5s111.5 79.5 191.5 79.5c83.333 0 147.666 -25.667 192.999 -77s68 -116.666 68 -195.999c0 -81.333 -23 -148 -69 -200s-110 -78 -192 -78zM299.001 421.999
c-34 0 -59.5 -14.5 -76.5 -43.5s-25.5 -66.167 -25.5 -111.5c0 -29.333 3.5 -55.5 10.5 -78.5s18.5 -41.667 34.5 -56s35.667 -21.5 59 -21.5c34 0 59.167 14.167 75.5 42.5s24.5 65.5 24.5 111.5c0 47.333 -8 85.333 -24 114s-42 43 -78 43zM434.001 758.999
l77.9971 -64.001c-14.667 -28 -34.167 -49.833 -58.5 -65.5s-52.833 -23.5 -85.5 -23.5c-23.333 0 -47.666 6.16699 -72.999 18.5s-43.333 18.5 -54 18.5c-9.33301 0 -17.166 -0.666992 -23.499 -2s-12.666 -4.16602 -18.999 -8.49902s-11.833 -8.83301 -16.5 -13.5
s-11 -12 -19 -22l-69 67c10.667 24 27.167 44.5 49.5 61.5s46.5 25.5 72.5 25.5s53 -6.16699 81 -18.5s48.667 -18.5 62 -18.5c35.333 0 60.333 15 75 45z" />
    <glyph glyph-name="odieresis" unicode="&#xf6;" horiz-adv-x="597" 
d="M82 679c0 24 8.33301 44.167 25 60.5s37.667 24.5 63 24.5c24.667 0 45.167 -8.16699 61.5 -24.5s24.5 -36.5 24.5 -60.5c0 -24.667 -8.16699 -45.334 -24.5 -62.001s-36.833 -25 -61.5 -25c-25.333 0 -46.333 8.33301 -63 25s-25 37.334 -25 62.001zM365 679
c0 24 8.33301 44.167 25 60.5s37.334 24.5 62.001 24.5s45.5 -8.33301 62.5 -25s25.5 -36.667 25.5 -60c0 -24.667 -8.5 -45.334 -25.5 -62.001s-37.833 -25 -62.5 -25s-45.334 8.33301 -62.001 25s-25 37.334 -25 62.001zM300 -8c-84 0 -148.832 25.166 -194.499 75.499
s-68.5 114.833 -68.5 193.5c0 82 23.833 149.5 71.5 202.5s111.5 79.5 191.5 79.5c83.333 0 147.666 -25.667 192.999 -77s68 -116.666 68 -195.999c0 -81.333 -23 -148 -69 -200s-110 -78 -192 -78zM299.001 421.999c-34 0 -59.5 -14.5 -76.5 -43.5
s-25.5 -66.167 -25.5 -111.5c0 -29.333 3.5 -55.5 10.5 -78.5s18.5 -41.667 34.5 -56s35.667 -21.5 59 -21.5c34 0 59.167 14.167 75.5 42.5s24.5 65.5 24.5 111.5c0 47.333 -8 85.333 -24 114s-42 43 -78 43z" />
    <glyph glyph-name="divide" unicode="&#xf7;" horiz-adv-x="621" 
d="M226 543.5c0 21.667 7.83301 40.5 23.5 56.5s34.334 24 56.001 24s40.5 -8 56.5 -24s24 -34.833 24 -56.5s-8 -40.167 -24 -55.5s-34.833 -23 -56.5 -23s-40.334 7.66699 -56.001 23s-23.5 33.833 -23.5 55.5zM47 290v137h527v-137h-527zM226 173
c0 21.333 7.83301 40 23.5 56s34.334 24 56.001 24s40.5 -8 56.5 -24s24 -34.667 24 -56s-8 -40 -24 -56s-34.833 -24 -56.5 -24s-40.334 8 -56.001 24s-23.5 34.667 -23.5 56z" />
    <glyph glyph-name="oslash" unicode="&#xf8;" horiz-adv-x="592" 
d="M412 337l-164.001 -231.001c14.667 -8 32.334 -12 53.001 -12c40 0 69.833 15.833 89.5 47.5s29.5 72.834 29.5 123.501c0 24 -2.66699 48 -8 72zM184.999 199.999l165 227.999c-16 7.33301 -33 11 -51 11c-40 0 -70.167 -16.167 -90.5 -48.5s-30.5 -73.5 -30.5 -123.5
c0 -25.333 2.33301 -47.666 7 -66.999zM560.999 542.998l-61 -86c40.667 -48 61 -110.333 61 -187c0 -81.333 -23 -148 -69 -200s-110 -78 -192 -78c-44.667 0 -84.334 7.33301 -119.001 22l-16 -22h-128l60 84c-40 48 -60 109.667 -60 185c0 82 23.833 149.5 71.5 202.5
s111.5 79.5 191.5 79.5c40.667 0 79.334 -7.33301 116.001 -22l17 22h128z" />
    <glyph glyph-name="ugrave" unicode="&#xf9;" 
d="M370 583h-127l-117 187h153zM394 535h154.001v-535h-154v85c-13.333 -28 -33.833 -49.833 -61.5 -65.5s-61.167 -23.5 -100.5 -23.5c-54.667 0 -97.334 15.333 -128.001 46s-46 75.667 -46 135v358h154v-323c0 -30.667 7.16699 -54 21.5 -70s34.833 -24 61.5 -24
c66 0 99 44.667 99 134v283z" />
    <glyph glyph-name="uacute" unicode="&#xfa;" 
d="M495 770l-116 -187h-128l91 187h153zM394 535h154.001v-535h-154v85c-13.333 -28 -33.833 -49.833 -61.5 -65.5s-61.167 -23.5 -100.5 -23.5c-54.667 0 -97.334 15.333 -128.001 46s-46 75.667 -46 135v358h154v-323c0 -30.667 7.16699 -54 21.5 -70s34.833 -24 61.5 -24
c66 0 99 44.667 99 134v283z" />
    <glyph glyph-name="ucircumflex" unicode="&#xfb;" 
d="M304 686l-84 -102h-146l164 187h131l165 -187h-147zM394 535h154.001v-535h-154v85c-13.333 -28 -33.833 -49.833 -61.5 -65.5s-61.167 -23.5 -100.5 -23.5c-54.667 0 -97.334 15.333 -128.001 46s-46 75.667 -46 135v358h154v-323c0 -30.667 7.16699 -54 21.5 -70
s34.833 -24 61.5 -24c66 0 99 44.667 99 134v283z" />
    <glyph glyph-name="udieresis" unicode="&#xfc;" 
d="M444 591c-16.667 0 -31.666 3.83496 -44.999 11.502s-23.833 18.167 -31.5 31.5s-11.5 28 -11.5 44c0 24 8.33301 44.167 25 60.5s37.667 24.5 63 24.5c12 0 23.5 -2.16699 34.5 -6.5s20.333 -10.333 28 -18s13.667 -16.834 18 -27.501s6.5 -21.667 6.5 -33
c0 -24.667 -8.33301 -45.334 -25 -62.001s-37.334 -25 -62.001 -25zM162.001 591.002c-16.667 0 -31.667 3.83398 -45 11.501s-23.833 18.167 -31.5 31.5s-11.5 28 -11.5 44c0 24 8.33301 44.167 25 60.5s37.667 24.5 63 24.5c24.667 0 45.167 -8.16699 61.5 -24.5
s24.5 -36.5 24.5 -60.5c0 -24.667 -8.16699 -45.334 -24.5 -62.001s-36.833 -25 -61.5 -25zM394.001 535.003h154.001v-535h-154v85c-13.333 -28 -33.833 -49.833 -61.5 -65.5s-61.167 -23.5 -100.5 -23.5c-54.667 0 -97.334 15.333 -128.001 46s-46 75.667 -46 135v358h154
v-323c0 -30.667 7.16699 -54 21.5 -70s34.833 -24 61.5 -24c66 0 99 44.667 99 134v283z" />
    <glyph glyph-name="yacute" unicode="&#xfd;" horiz-adv-x="560" 
d="M236 584l91 187h154l-117 -187h-128zM212 8l-207.001 526.999h168l58 -167c14.667 -42.667 26.834 -79.667 36.501 -111s15.5 -51.666 17.5 -60.999l3 -15c8 28.667 27 91 57 187l53 167h158l-193 -520c-56 -149.333 -141 -224 -255 -224c-22 0 -41.667 1.66699 -59 5
v123c11.333 -2.66699 23.333 -4 36 -4c31.333 0 57 7.5 77 22.5s36.667 38.5 50 70.5z" />
    <glyph glyph-name="thorn" unicode="&#xfe;" horiz-adv-x="643" 
d="M338 123c34 0 61.335 12.668 82.002 38.001s31 60.333 31 105c0 48 -10.667 84.5 -32 109.5s-48.333 37.5 -81 37.5c-15.333 0 -30 -3 -44 -9s-26.833 -14.5 -38.5 -25.5s-21 -25.667 -28 -44s-10.5 -38.833 -10.5 -61.5c0 -30.667 5.16699 -57.334 15.5 -80.001
s24.666 -40 42.999 -52s39.166 -18 62.499 -18zM217.002 746.001v-294c38 59.333 92 89 162 89c69.333 0 124.833 -24.5 166.5 -73.5s62.5 -115.167 62.5 -198.5c0 -79.333 -20.333 -145 -61 -197s-96.667 -78 -168 -78c-72.667 0 -126.667 28.333 -162 85v-276h-154v943
h154z" />
    <glyph glyph-name="ydieresis" unicode="&#xff;" horiz-adv-x="560" 
d="M345 678c0 24 8.33301 44.168 25 60.501s37.667 24.5 63 24.5c24.667 0 45.334 -8.33301 62.001 -25s25 -36.667 25 -60c0 -24.667 -8.33301 -45.334 -25 -62.001s-37.334 -25 -62.001 -25c-16.667 0 -31.667 3.83301 -45 11.5s-23.833 18.167 -31.5 31.5
s-11.5 28 -11.5 44zM62 678.001c0 24 8.33203 44.168 24.999 60.501s37.334 24.5 62.001 24.5s45.334 -8.16699 62.001 -24.5s25 -36.5 25 -60.5c0 -24.667 -8.33301 -45.334 -25 -62.001s-37.334 -25 -62.001 -25c-16 0 -30.833 3.83301 -44.5 11.5
s-24.167 18.167 -31.5 31.5s-11 28 -11 44zM211.999 8.00195l-207.001 526.999h168l58 -167c14.667 -42.667 26.834 -79.667 36.501 -111s15.5 -51.666 17.5 -60.999l3 -15c8 28.667 27 91 57 187l53 167h158l-193 -520c-56 -149.333 -141 -224 -255 -224
c-22 0 -41.667 1.66699 -59 5v123c11.333 -2.66699 23.333 -4 36 -4c31.333 0 57 7.5 77 22.5s36.667 38.5 50 70.5z" />
    <glyph glyph-name="Amacron" unicode="&#x100;" horiz-adv-x="727" 
d="M556 907v-105h-376v105h376zM276 276l171 0.000976562l-7 26c-20.667 68.667 -37.5 127.167 -50.5 175.5s-20.833 79.5 -23.5 93.5l-4 21c-6 -38.667 -32.333 -135.334 -79 -290.001zM529 0.000976562l-43 145h-249l-43 -145h-169l237 711h205l236 -711h-174z" />
    <glyph glyph-name="amacron" unicode="&#x101;" horiz-adv-x="543" 
d="M459 730v-105h-375v105h375zM328 219l-50.001 -0.000976562c-25.333 0 -45.166 -5.33301 -59.499 -16s-21.5 -25 -21.5 -43c0 -36.667 21 -55 63 -55c21.333 0 38 6.83301 50 20.5s18 31.834 18 54.501v39zM77.999 369.999l0.00195312 139.001
c18 9.33301 43.167 17.5 75.5 24.5s68.166 10.5 107.499 10.5c75.333 0 131.666 -16.333 168.999 -49s56 -83.334 56 -152.001v-343h-150v65c-22 -45.333 -66.333 -68 -133 -68c-52 0 -92.667 14.667 -122 44s-44 66 -44 110c0 51.333 18.833 91.333 56.5 120
s93.5 43 167.5 43h67v37c0 22 -6.83301 38.833 -20.5 50.5s-36.834 17.5 -69.501 17.5c-57.333 0 -110.666 -16.333 -159.999 -49z" />
    <glyph glyph-name="Abreve" unicode="&#x102;" horiz-adv-x="727" 
d="M451 948l119.001 -0.00292969c0 -65.333 -19.333 -113.666 -58 -144.999s-89.334 -47 -152.001 -47c-23.333 0 -45.333 2.16699 -66 6.5s-39.834 11.333 -57.501 21s-32.667 21.834 -45 36.501s-22.166 32.834 -29.499 54.501s-11 46.167 -11 73.5h119
c0 -30 8.33301 -53.333 25 -70s38.5 -25 65.5 -25s48.833 8.33301 65.5 25s25 40 25 70zM276.001 275.997l171 0.000976562l-7 26c-20.667 68.667 -37.5 127.167 -50.5 175.5s-20.833 79.5 -23.5 93.5l-4 21c-6 -38.667 -32.333 -135.334 -79 -290.001zM529.001 -0.00195312
l-43 145h-249l-43 -145h-169l237 711h205l236 -711h-174z" />
    <glyph glyph-name="abreve" unicode="&#x103;" horiz-adv-x="543" 
d="M362 770h118c0 -65.333 -19.167 -113.5 -57.5 -144.5s-88.833 -46.5 -151.5 -46.5s-113.167 15.5 -151.5 46.5s-57.5 79.167 -57.5 144.5h118c0 -29.333 8.33301 -52.333 25 -69s38.5 -25 65.5 -25s49 8.33301 66 25s25.5 39.667 25.5 69zM328 219l-50.001 -0.000976562
c-25.333 0 -45.166 -5.33301 -59.499 -16s-21.5 -25 -21.5 -43c0 -36.667 21 -55 63 -55c21.333 0 38 6.83301 50 20.5s18 31.834 18 54.501v39zM77.999 369.999l0.00195312 139.001c18 9.33301 43.167 17.5 75.5 24.5s68.166 10.5 107.499 10.5
c75.333 0 131.666 -16.333 168.999 -49s56 -83.334 56 -152.001v-343h-150v65c-22 -45.333 -66.333 -68 -133 -68c-52 0 -92.667 14.667 -122 44s-44 66 -44 110c0 51.333 18.833 91.333 56.5 120s93.5 43 167.5 43h67v37c0 22 -6.83301 38.833 -20.5 50.5
s-36.834 17.5 -69.501 17.5c-57.333 0 -110.666 -16.333 -159.999 -49z" />
    <glyph glyph-name="Aogonek" unicode="&#x104;" horiz-adv-x="716" 
d="M271 276l171 0.000976562l-7 26c-20.667 68.667 -37.667 127.167 -51 175.5s-21.333 79.5 -24 93.5l-4 21c-5.33301 -38.667 -31.333 -135.334 -78 -290.001zM460 711.001l238 -711c-82.667 -52 -124 -97.667 -124 -137c0 -24 15 -36 45 -36c29.333 0 60 10.667 92 32
v-107c-34.667 -17.333 -73 -26 -115 -26c-24.667 0 -46.667 3.33301 -66 10s-34.5 15.667 -45.5 27s-19.333 24.333 -25 39s-8.5 30.667 -8.5 48c0 54.667 24.333 104.667 73 150l-43 145h-249l-44 -145h-169l237 711h204z" />
    <glyph glyph-name="aogonek" unicode="&#x105;" horiz-adv-x="538" 
d="M328 219l-50.001 -0.000976562c-25.333 0 -45.166 -5.33301 -59.499 -16s-21.5 -25 -21.5 -43c0 -36.667 21 -55 63 -55c21.333 0 38 6.83301 50 20.5s18 31.834 18 54.501v39zM485.999 342.999l0.00195312 -342.999c-82.667 -52 -124 -97.667 -124 -137
c0 -24 15 -36 45 -36c29.333 0 60 10.667 92 32v-107c-34.667 -17.333 -73 -26 -115 -26c-48.667 0 -85 11.5 -109 34.5s-36 52.833 -36 89.5c0 58 32.333 111.333 97 160v55c-22 -45.333 -66.333 -68 -133 -68c-52 0 -92.667 14.667 -122 44s-44 66 -44 110
c0 51.333 18.833 91.333 56.5 120s93.5 43 167.5 43h67v37c0 22 -6.83301 38.833 -20.5 50.5s-36.834 17.5 -69.501 17.5c-57.333 0 -110.666 -16.333 -159.999 -49v139c18 9.33301 43.167 17.5 75.5 24.5s68.166 10.5 107.499 10.5c75.333 0 131.666 -16.333 168.999 -49
s56 -83.334 56 -152.001z" />
    <glyph glyph-name="Cacute" unicode="&#x106;" horiz-adv-x="645" 
d="M594 680v-156.002c-20 12.667 -39.833 22.667 -59.5 30s-38.334 12.333 -56.001 15s-37.834 4 -60.501 4c-56.667 0 -104.5 -20 -143.5 -60s-58.5 -93.333 -58.5 -160c0 -65.333 19.333 -117.166 58 -155.499s88.667 -57.5 150 -57.5c19.333 0 38.833 1.83301 58.5 5.5
s39.334 9.33398 59.001 17.001s37.167 17.167 52.5 28.5v-159c-42.667 -26.667 -104.667 -40 -186 -40c-68 0 -129.667 14.833 -185 44.5s-99.333 72.167 -132 127.5s-49 118.333 -49 189c0 108.667 33.833 197 101.5 265s156.167 102 265.5 102
c80.667 0 142.334 -13.333 185.001 -40zM320 759.998l91 188h154l-117 -188h-128z" />
    <glyph glyph-name="cacute" unicode="&#x107;" horiz-adv-x="494" 
d="M250 583l91 187h153l-116 -187h-128zM193 266c2 -46.667 15.8311 -83.167 41.498 -109.5s59.5 -39.5 101.5 -39.5c44.667 0 87.334 12.333 128.001 37v-128c-41.333 -22.667 -91.666 -34 -150.999 -34c-80 0 -146 25.333 -198 76s-78 116.667 -78 198
c1.33301 80 27.333 146.167 78 198.5s119.667 78.5 207 78.5c56.667 0 104 -10 142 -30v-132c-36 22.667 -77.667 34 -125 34c-43.333 0 -78.5 -12.833 -105.5 -38.5s-40.5 -62.5 -40.5 -110.5z" />
    <glyph glyph-name="Ccaron" unicode="&#x10c;" horiz-adv-x="645" 
d="M594 680v-156.002c-20 12.667 -39.833 22.667 -59.5 30s-38.334 12.333 -56.001 15s-37.834 4 -60.501 4c-56.667 0 -104.5 -20 -143.5 -60s-58.5 -93.333 -58.5 -160c0 -65.333 19.333 -117.166 58 -155.499s88.667 -57.5 150 -57.5c19.333 0 38.833 1.83301 58.5 5.5
s39.334 9.33398 59.001 17.001s37.167 17.167 52.5 28.5v-159c-42.667 -26.667 -104.667 -40 -186 -40c-68 0 -129.667 14.833 -185 44.5s-99.333 72.167 -132 127.5s-49 118.333 -49 189c0 108.667 33.833 197 101.5 265s156.167 102 265.5 102
c80.667 0 142.334 -13.333 185.001 -40zM445 759.998h-131l-165 188h148l83 -102l84 102h146z" />
    <glyph glyph-name="ccaron" unicode="&#x10d;" horiz-adv-x="494" 
d="M464 513l-0.00195312 -132c-36 22.667 -77.667 34 -125 34c-43.333 0 -78.5 -12.833 -105.5 -38.5s-40.5 -62.5 -40.5 -110.5c2 -46.667 15.833 -83.167 41.5 -109.5s59.5 -39.5 101.5 -39.5c44.667 0 87.334 12.333 128.001 37v-128
c-41.333 -22.667 -91.666 -34 -150.999 -34c-80 0 -146 25.333 -198 76s-78 116.667 -78 198c1.33301 80 27.333 146.167 78 198.5s119.667 78.5 207 78.5c56.667 0 104 -10 142 -30zM354.998 583h-130l-165 187h147l83 -102l83 102h147z" />
    <glyph glyph-name="Dcaron" unicode="&#x10e;" horiz-adv-x="719" 
d="M403 760h-131l-165 188h147l84 -102l83 102h147zM235 133l74 -0.00195312c66 0 116.667 20.333 152 61s53 98.334 53 173.001c0 62.667 -18 113.334 -54 152.001s-86.667 58 -152 58h-73v-444zM69 710.998h244c53.333 0 102.833 -9 148.5 -27s84.167 -42.5 115.5 -73.5
s56 -67.5 74 -109.5s27 -86.667 27 -134c0 -114 -33.5 -203.667 -100.5 -269s-155.833 -98 -266.5 -98h-242v711z" />
    <glyph glyph-name="dcaron" unicode="&#x10f;" horiz-adv-x="784" 
d="M309 123c35.333 0 63.833 13.5 85.5 40.5s32.5 63.5 32.5 109.5c0 44.667 -11.833 79.167 -35.5 103.5s-51.5 36.5 -83.5 36.5c-20.667 0 -39.667 -5.33301 -57 -16s-31.333 -27.5 -42 -50.5s-16 -49.833 -16 -80.5c0 -43.333 11.167 -78 33.5 -104s49.833 -39 82.5 -39z
M427 452l0.00292969 294h154v-746h-154v83c-18 -30 -41 -52.333 -69 -67s-58.333 -22 -91 -22c-46.667 0 -87.834 13 -123.501 39s-62.334 59.667 -80.001 101s-26.5 86.333 -26.5 135c0 84.667 21.667 151.167 65 199.5s98.666 72.5 165.999 72.5c32 0 62 -7.5 90 -22.5
s51 -37.167 69 -66.5zM707.003 747h159l-122 -223h-113z" />
    <glyph glyph-name="Dcroat" unicode="&#x110;" horiz-adv-x="788" 
d="M305 133l73.999 -0.000976562c65.333 0 115.666 20.333 150.999 61s53 98.334 53 173.001c0 41.333 -7.66699 77.5 -23 108.5s-38.666 55.667 -69.999 74s-68.666 27.5 -111.999 27.5h-73v-163h145v-131h-145v-150zM137.999 710.999h245c53.333 0 102.833 -9 148.5 -27
s84.167 -42.5 115.5 -73.5s56 -67.5 74 -109.5s27 -86.667 27 -134c0 -75.333 -15.5 -140.833 -46.5 -196.5s-74 -98 -129 -127s-118.833 -43.5 -191.5 -43.5h-243v283h-69v131h69v297z" />
    <glyph glyph-name="dcroat" unicode="&#x111;" horiz-adv-x="643" 
d="M309 123c35.333 0 63.833 13.5 85.5 40.5s32.5 63.5 32.5 109.5c0 44.667 -11.833 79.167 -35.5 103.5s-51.5 36.5 -83.5 36.5c-20.667 0 -39.667 -5.33301 -57 -16s-31.333 -27.5 -42 -50.5s-16 -49.833 -16 -80.5c0 -43.333 11.167 -78 33.5 -104s49.833 -39 82.5 -39z
M642 682l0.00292969 -87h-61v-595h-154v83c-18 -30 -41 -52.333 -69 -67s-58.333 -22 -91 -22c-46.667 0 -87.834 13 -123.501 39s-62.334 59.667 -80.001 101s-26.5 86.333 -26.5 135c0 84.667 21.667 151.167 65 199.5s98.666 72.5 165.999 72.5c32 0 62 -7.5 90 -22.5
s51 -37.167 69 -66.5v143h-159v87h159v64h154v-64h61z" />
    <glyph glyph-name="Emacron" unicode="&#x112;" horiz-adv-x="573" 
d="M475 911v-106h-376v106h376zM232 130h279v-130h-442v711h438v-130h-275v-161h245v-129h-245v-161z" />
    <glyph glyph-name="emacron" unicode="&#x113;" horiz-adv-x="561" 
d="M473 730v-105h-376v105h376zM372 316l-0.00195312 13c-5.33301 62.667 -32.666 94 -81.999 94c-7.33301 0 -14.666 -0.833008 -21.999 -2.5s-14.5 -4.5 -21.5 -8.5s-13.667 -8.83301 -20 -14.5s-12 -12.5 -17 -20.5s-9.5 -17.167 -13.5 -27.5s-7.33301 -21.5 -10 -33.5
h186zM482.998 160l0.00292969 -129.002c-18 -12 -42.833 -21 -74.5 -27s-62.834 -9 -93.501 -9c-58.667 0 -109.334 12 -152.001 36s-74.334 56.333 -95.001 97s-31 87.334 -31 140.001c0 84.667 23.5 151.167 70.5 199.5s105.5 72.5 175.5 72.5
c72 0 128.833 -20.833 170.5 -62.5s62.5 -104.167 62.5 -187.5c0 -15.333 -2.66699 -43 -8 -83h-315c10 -29.333 28.167 -52.166 54.5 -68.499s57.833 -24.5 94.5 -24.5c54 0 101 15.333 141 46z" />
    <glyph glyph-name="Edotaccent" unicode="&#x116;" horiz-adv-x="573" 
d="M298 767c-25.333 0 -46.333 8.33301 -63 25s-25 37.334 -25 62.001c0 24 8.33301 44.167 25 60.5s37.667 24.5 63 24.5c24 0 44.333 -8.16699 61 -24.5s25 -36.5 25 -60.5c0 -24.667 -8.16699 -45.334 -24.5 -62.001s-36.833 -25 -61.5 -25zM232 130h279v-130h-442v711
h438v-130h-275v-161h245v-129h-245v-161z" />
    <glyph glyph-name="edotaccent" unicode="&#x117;" horiz-adv-x="561" 
d="M296 591c-25.333 0 -46.334 8.33203 -63.001 24.999s-25 37.334 -25 62.001c0 15.333 3.83301 29.5 11.5 42.5s18.167 23.333 31.5 31s28.333 11.5 45 11.5c24 0 44.333 -8.16699 61 -24.5s25 -36.5 25 -60.5c0 -16 -3.66699 -30.667 -11 -44
s-17.666 -23.833 -30.999 -31.5s-28 -11.5 -44 -11.5zM371.999 315.999l-0.00195312 13c-5.33301 62.667 -32.666 94 -81.999 94c-7.33301 0 -14.666 -0.833008 -21.999 -2.5s-14.5 -4.5 -21.5 -8.5s-13.667 -8.83301 -20 -14.5s-12 -12.5 -17 -20.5
s-9.5 -17.167 -13.5 -27.5s-7.33301 -21.5 -10 -33.5h186zM482.997 159.999l0.00292969 -129.002c-18 -12 -42.833 -21 -74.5 -27s-62.834 -9 -93.501 -9c-58.667 0 -109.334 12 -152.001 36s-74.334 56.333 -95.001 97s-31 87.334 -31 140.001
c0 84.667 23.5 151.167 70.5 199.5s105.5 72.5 175.5 72.5c72 0 128.833 -20.833 170.5 -62.5s62.5 -104.167 62.5 -187.5c0 -15.333 -2.66699 -43 -8 -83h-315c10 -29.333 28.167 -52.166 54.5 -68.499s57.833 -24.5 94.5 -24.5c54 0 101 15.333 141 46z" />
    <glyph glyph-name="Eogonek" unicode="&#x118;" horiz-adv-x="573" 
d="M511 130l-0.000976562 -130c-83.333 -52 -125 -97.667 -125 -137c0 -24 15.333 -36 46 -36c28.667 0 59 10.667 91 32v-107c-34 -17.333 -72.333 -26 -115 -26c-49.333 0 -85.666 11.5 -108.999 34.5s-35 52.833 -35 89.5c0 54.667 27.667 104.667 83 150h-278v711h438
v-130h-275v-161h245v-129h-245v-161h279z" />
    <glyph glyph-name="eogonek" unicode="&#x119;" horiz-adv-x="561" 
d="M372 316l-0.00195312 13c-5.33301 62.667 -32.666 94 -81.999 94c-7.33301 0 -14.666 -0.833008 -21.999 -2.5s-14.5 -4.5 -21.5 -8.5s-13.667 -8.83301 -20 -14.5s-12 -12.5 -17 -20.5s-9.5 -17.167 -13.5 -27.5s-7.33301 -21.5 -10 -33.5h186zM481.998 -118
l0.000976562 -107.001c-36 -17.333 -74.333 -26 -115 -26c-49.333 0 -85.833 11.5 -109.5 34.5s-35.5 52.5 -35.5 88.5c0 44.667 18.333 86.334 55 125.001c-76.667 6.66699 -135.834 35 -177.501 85s-62.5 112 -62.5 186c0 84.667 23.5 151.167 70.5 199.5
s105.5 72.5 175.5 72.5c72 0 128.833 -20.833 170.5 -62.5s62.5 -104.167 62.5 -187.5c0 -15.333 -2.66699 -43 -8 -83h-315c10 -29.333 28.167 -52.166 54.5 -68.499s57.833 -24.5 94.5 -24.5c54 0 101 15.333 141 46v-129c-4.66699 -4 -9.66699 -6.66699 -15 -8
c-82 -52.667 -123 -98.334 -123 -137.001c0 -23.333 15.167 -35 45.5 -35s60.833 10.333 91.5 31z" />
    <glyph glyph-name="Ecaron" unicode="&#x11a;" horiz-adv-x="573" 
d="M359 760h-130l-165 188h147l84 -102l83 102h146zM232 291v-161h279v-130h-442v711h438v-130h-275v-161h245v-129h-245z" />
    <glyph glyph-name="ecaron" unicode="&#x11b;" horiz-adv-x="561" 
d="M352 583h-131l-164 187h147l83 -102l83 102h147zM372 316l-0.00195312 13c-5.33301 62.667 -32.666 94 -81.999 94c-7.33301 0 -14.666 -0.833008 -21.999 -2.5s-14.5 -4.5 -21.5 -8.5s-13.667 -8.83301 -20 -14.5s-12 -12.5 -17 -20.5s-9.5 -17.167 -13.5 -27.5
s-7.33301 -21.5 -10 -33.5h186zM482.998 160l0.00292969 -129.002c-18 -12 -42.833 -21 -74.5 -27s-62.834 -9 -93.501 -9c-58.667 0 -109.334 12 -152.001 36s-74.334 56.333 -95.001 97s-31 87.334 -31 140.001c0 84.667 23.5 151.167 70.5 199.5s105.5 72.5 175.5 72.5
c72 0 128.833 -20.833 170.5 -62.5s62.5 -104.167 62.5 -187.5c0 -15.333 -2.66699 -43 -8 -83h-315c10 -29.333 28.167 -52.166 54.5 -68.499s57.833 -24.5 94.5 -24.5c54 0 101 15.333 141 46z" />
    <glyph glyph-name="Gbreve" unicode="&#x11e;" horiz-adv-x="743" 
d="M489 948h119c0 -65.333 -19.167 -113.666 -57.5 -144.999s-88.833 -47 -151.5 -47s-113.167 15.667 -151.5 47s-57.5 79.666 -57.5 144.999h118c0 -30 8.33301 -53.333 25 -70s38.5 -25 65.5 -25s48.833 8.33301 65.5 25s25 40 25 70zM682 424v-358.999
c-66.667 -48.667 -152 -73 -256 -73c-114 0 -206.5 32.667 -277.5 98s-106.5 154 -106.5 266c0 74 17.333 139 52 195s81.667 98.667 141 128s126.333 44 201 44c80 0 149.333 -14.667 208 -44v-162c-67.333 38.667 -136.666 58 -207.999 58
c-66.667 0 -119.834 -19.833 -159.501 -59.5s-59.5 -92.834 -59.5 -159.501s19.333 -119.667 58 -159s91.667 -59 159 -59c29.333 0 59 4.33301 89 13v135h-115v138h274z" />
    <glyph glyph-name="gbreve" unicode="&#x11f;" horiz-adv-x="616" 
d="M419 771h118c0 -65.333 -19.167 -113.5 -57.5 -144.5s-88.833 -46.5 -151.5 -46.5s-113.167 15.5 -151.5 46.5s-57.5 79.167 -57.5 144.5h118c0 -29.333 8.33301 -52.333 25 -69s38.5 -25 65.5 -25s49 8.33301 66 25s25.5 39.667 25.5 69zM301 140
c33.333 0 59.168 12.333 77.501 37s27.5 55 27.5 91c0 95.333 -34.667 143 -104 143c-30.667 0 -54.834 -12 -72.501 -36s-26.5 -57 -26.5 -99c0 -44 8.5 -77.667 25.5 -101s41.167 -35 72.5 -35zM406.002 535l153 -0.000976562v-483c0 -30 -3.33301 -57.5 -10 -82.5
s-16 -46.833 -28 -65.5s-26.333 -35.167 -43 -49.5s-35 -26 -55 -35s-41.167 -15.667 -63.5 -20s-45.833 -6.5 -70.5 -6.5c-76 0 -141.667 13.333 -197 40v158c49.333 -40 109.666 -60 180.999 -60c46.667 0 80.5 9.83301 101.5 29.5s31.5 50.834 31.5 93.501v36
c-32 -48 -81 -72 -147 -72c-28 0 -54.5 5 -79.5 15s-48 25 -69 45s-37.667 47.167 -50 81.5s-18.5 73.5 -18.5 117.5c0 76 20.5 138.833 61.5 188.5s95.167 74.5 162.5 74.5c62.667 0 109.334 -25 140.001 -75v70z" />
    <glyph glyph-name="uni0122" unicode="&#x122;" horiz-adv-x="743" 
d="M241 -276l75 222h160l-123 -222h-112zM682 424v-358.999c-66.667 -48.667 -152 -73 -256 -73c-114 0 -206.5 32.667 -277.5 98s-106.5 154 -106.5 266c0 74 17.333 139 52 195s81.667 98.667 141 128s126.333 44 201 44c80 0 149.333 -14.667 208 -44v-162
c-67.333 38.667 -136.666 58 -207.999 58c-66.667 0 -119.834 -19.833 -159.501 -59.5s-59.5 -92.834 -59.5 -159.501s19.333 -119.667 58 -159s91.667 -59 159 -59c29.333 0 59 4.33301 89 13v135h-115v138h274z" />
    <glyph glyph-name="uni0123" unicode="&#x123;" horiz-adv-x="616" 
d="M496 806l-74 -222h-159l122 222h111zM301 140c33.333 0 59.168 12.333 77.501 37s27.5 55 27.5 91c0 95.333 -34.667 143 -104 143c-30.667 0 -54.834 -12 -72.501 -36s-26.5 -57 -26.5 -99c0 -44 8.5 -77.667 25.5 -101s41.167 -35 72.5 -35zM406.002 535
l153 -0.000976562v-483c0 -30 -3.33301 -57.5 -10 -82.5s-16 -46.833 -28 -65.5s-26.333 -35.167 -43 -49.5s-35 -26 -55 -35s-41.167 -15.667 -63.5 -20s-45.833 -6.5 -70.5 -6.5c-76 0 -141.667 13.333 -197 40v158c49.333 -40 109.666 -60 180.999 -60
c46.667 0 80.5 9.83301 101.5 29.5s31.5 50.834 31.5 93.501v36c-32 -48 -81 -72 -147 -72c-28 0 -54.5 5 -79.5 15s-48 25 -69 45s-37.667 47.167 -50 81.5s-18.5 73.5 -18.5 117.5c0 76 20.5 138.833 61.5 188.5s95.167 74.5 162.5 74.5c62.667 0 109.334 -25 140.001 -75
v70z" />
    <glyph glyph-name="Imacron" unicode="&#x12a;" horiz-adv-x="320" 
d="M79 0v711h162v-711h-162zM348 801h-376v105h376v-105z" />
    <glyph glyph-name="imacron" unicode="&#x12b;" horiz-adv-x="290" 
d="M69 0v535h153v-535h-153zM334 625h-376v105h376v-105z" />
    <glyph glyph-name="Iogonek" unicode="&#x12e;" horiz-adv-x="320" 
d="M241 711v-711c-82.667 -52 -124 -97.667 -124 -137c0 -24 15.333 -36 46 -36c29.333 0 59.666 10.667 90.999 32v-107c-34 -17.333 -72.333 -26 -115 -26c-49.333 0 -85.666 11.5 -108.999 34.5s-35 52.833 -35 89.5c0 54.667 28 105 84 151v710h162z" />
    <glyph glyph-name="iogonek" unicode="&#x12f;" horiz-adv-x="290" 
d="M145 600c-24.667 0 -45.667 8.83301 -63 26.5s-26 38.834 -26 63.501s8.66699 45.834 26 63.501s38.333 26.5 63 26.5s45.834 -8.83301 63.501 -26.5s26.5 -38.834 26.5 -63.501s-8.83301 -45.834 -26.5 -63.501s-38.834 -26.5 -63.501 -26.5zM222 535v-534.999
c-82.667 -52 -124 -97.667 -124 -137c0 -24 15 -36 45 -36c29.333 0 60 10.667 92 32v-107c-34.667 -17.333 -72.667 -26 -114 -26c-49.333 0 -86 11.5 -110 34.5s-36 52.833 -36 89.5c0 55.333 31.333 107.666 94 156.999v528h153z" />
    <glyph glyph-name="Idotaccent" unicode="&#x130;" horiz-adv-x="320" 
d="M79 0v711h162v-711h-162zM75 854c0 11.333 2.16699 22.332 6.5 32.999s10.333 19.834 18 27.501s17 13.667 28 18s22.833 6.5 35.5 6.5c24.667 0 45.167 -8.16699 61.5 -24.5s24.5 -36.5 24.5 -60.5c0 -24.667 -8.16699 -45.334 -24.5 -62.001s-36.833 -25 -61.5 -25
c-25.333 0 -46.333 8.33301 -63 25s-25 37.334 -25 62.001z" />
    <glyph glyph-name="dotlessi" unicode="&#x131;" horiz-adv-x="290" 
d="M69 0v535h153v-535h-153z" />
    <glyph glyph-name="uni0136" unicode="&#x136;" horiz-adv-x="697" 
d="M231 711v-711h-162v711h162zM200 -276l74 222h160l-123 -222h-111zM428 355l252 -355h-203l-239 353l231 358h192z" />
    <glyph glyph-name="uni0137" unicode="&#x137;" horiz-adv-x="577" 
d="M217 263v-263h-154v728h154v-432l169 239h177l-185 -257l188 -278h-178zM157 -276l74 222h159l-122 -222h-111z" />
    <glyph glyph-name="Lacute" unicode="&#x139;" horiz-adv-x="513" 
d="M515 948l-117 -188h-128l90 188h155zM231 711v-569h262v-142h-424v711h162z" />
    <glyph glyph-name="lacute" unicode="&#x13a;" horiz-adv-x="290" 
d="M79 795l91 187h153l-116 -187h-128zM69 0v746h153v-746h-153z" />
    <glyph glyph-name="uni013B" unicode="&#x13b;" horiz-adv-x="513" 
d="M146 -276l75 222h160l-122 -222h-113zM231 142h262v-142h-424v711h162v-569z" />
    <glyph glyph-name="uni013C" unicode="&#x13c;" horiz-adv-x="290" 
d="M69 0v746h153v-746h-153zM-11 -276l74 222h159l-122 -222h-111z" />
    <glyph glyph-name="Lcaron" unicode="&#x13d;" horiz-adv-x="513" 
d="M528 737l-122 -222h-111l74 222h159zM231 711v-569h262v-142h-424v711h162z" />
    <glyph glyph-name="lcaron" unicode="&#x13e;" horiz-adv-x="290" 
d="M69 0v746h153v-746h-153zM283 525l75 223h160l-122 -223h-113z" />
    <glyph glyph-name="Lslash" unicode="&#x141;" horiz-adv-x="593" 
d="M295 142h262v-142h-425v216l-85 -47v128l85 47v367h163v-276l173 96v-127l-173 -97v-165z" />
    <glyph glyph-name="lslash" unicode="&#x142;" horiz-adv-x="359" 
d="M349 570v-128l-87 -60v-382h-155v277l-80 -56v128l80 56v341h155v-236z" />
    <glyph glyph-name="Nacute" unicode="&#x143;" horiz-adv-x="734" 
d="M318 760l91 188h154l-117 -188h-128zM69 0l0.00195312 710.999h178l165 -295c23.333 -41.333 43.666 -80 60.999 -116s28.666 -61.333 33.999 -76l8 -23c-7.33301 51.333 -11 123 -11 215v295h162v-711h-178l-170 295c-22 38 -41.667 75.333 -59 112s-29 64 -35 82l-9 26
c10.667 -63.333 16 -136.666 16 -219.999v-295h-162z" />
    <glyph glyph-name="nacute" unicode="&#x144;" 
d="M517 771l-117 -187h-128l91 187h154zM217 535l-0.000976562 -90.999c9.33301 19.333 21.5 36.166 36.5 50.499s33.167 25.5 54.5 33.5s45 12 71 12c54.667 0 97.5 -16.333 128.5 -49s46.5 -80.667 46.5 -144v-347h-154v318c0 32 -7.5 56.167 -22.5 72.5
s-35.833 24.5 -62.5 24.5c-18 0 -34.167 -4.5 -48.5 -13.5s-26.166 -23.667 -35.499 -44s-14 -45.5 -14 -75.5v-282h-154v535h154z" />
    <glyph glyph-name="uni0145" unicode="&#x145;" horiz-adv-x="734" 
d="M220 -276l76 222h158l-121 -222h-113zM69 0l0.00195312 710.999h178l165 -295c23.333 -41.333 43.666 -80 60.999 -116s28.666 -61.333 33.999 -76l8 -23c-7.33301 51.333 -11 123 -11 215v295h162v-711h-178l-170 295c-22 38 -41.667 75.333 -59 112s-29 64 -35 82
l-9 26c10.667 -63.333 16 -136.666 16 -219.999v-295h-162z" />
    <glyph glyph-name="uni0146" unicode="&#x146;" 
d="M158 -276l74 222h159l-122 -222h-111zM217 535l-0.000976562 -90.999c9.33301 19.333 21.5 36.166 36.5 50.499s33.167 25.5 54.5 33.5s45 12 71 12c54.667 0 97.5 -16.333 128.5 -49s46.5 -80.667 46.5 -144v-347h-154v318c0 32 -7.5 56.167 -22.5 72.5
s-35.833 24.5 -62.5 24.5c-18 0 -34.167 -4.5 -48.5 -13.5s-26.166 -23.667 -35.499 -44s-14 -45.5 -14 -75.5v-282h-154v535h154z" />
    <glyph glyph-name="Ncaron" unicode="&#x147;" horiz-adv-x="734" 
d="M69 0l0.00195312 710.999h178l165 -295c23.333 -41.333 43.666 -80 60.999 -116s28.666 -61.333 33.999 -76l8 -23c-7.33301 51.333 -11 123 -11 215v295h162v-711h-178l-170 295c-22 38 -41.667 75.333 -59 112s-29 64 -35 82l-9 26
c10.667 -63.333 16 -136.666 16 -219.999v-295h-162zM438.002 759.999h-131l-165 188h147l83 -102l83 102h148z" />
    <glyph glyph-name="ncaron" unicode="&#x148;" 
d="M381 584h-131l-165 187h147l83 -101l84 101h146zM217 535l-0.000976562 -90.999c9.33301 19.333 21.5 36.166 36.5 50.499s33.167 25.5 54.5 33.5s45 12 71 12c54.667 0 97.5 -16.333 128.5 -49s46.5 -80.667 46.5 -144v-347h-154v318c0 32 -7.5 56.167 -22.5 72.5
s-35.833 24.5 -62.5 24.5c-18 0 -34.167 -4.5 -48.5 -13.5s-26.166 -23.667 -35.499 -44s-14 -45.5 -14 -75.5v-282h-154v535h154z" />
    <glyph glyph-name="Omacron" unicode="&#x14c;" horiz-adv-x="775" 
d="M575 801h-375v105h375v-105zM42 357c0 72 14.1689 135.668 42.502 191.001s68.666 98.166 120.999 128.499s113.166 45.5 182.499 45.5c106 0 190.167 -33.333 252.5 -100s93.5 -155 93.5 -265c0 -109.333 -31.333 -197.333 -94 -264s-146.667 -100 -252 -100
s-189.333 33.333 -252 100s-94 154.667 -94 264zM216.002 357.501c0 -66.333 15.5 -119.168 46.5 -158.501s72.833 -59 125.5 -59c34.667 0 65 8.83301 91 26.5s46 43 60 76s21 71.167 21 114.5c0 66.667 -15.5 119.667 -46.5 159s-72.833 59 -125.5 59
s-94.5 -19.667 -125.5 -59s-46.5 -92.166 -46.5 -158.499z" />
    <glyph glyph-name="omacron" unicode="&#x14d;" horiz-adv-x="597" 
d="M487 625h-375v105h375v-105zM300 -8c-84 0 -148.832 25.166 -194.499 75.499s-68.5 114.833 -68.5 193.5c0 82 23.833 149.5 71.5 202.5s111.5 79.5 191.5 79.5c83.333 0 147.666 -25.667 192.999 -77s68 -116.666 68 -195.999c0 -81.333 -23 -148 -69 -200
s-110 -78 -192 -78zM299.001 421.999c-34 0 -59.5 -14.5 -76.5 -43.5s-25.5 -66.167 -25.5 -111.5c0 -29.333 3.5 -55.5 10.5 -78.5s18.5 -41.667 34.5 -56s35.667 -21.5 59 -21.5c34 0 59.167 14.167 75.5 42.5s24.5 65.5 24.5 111.5c0 47.333 -8 85.333 -24 114
s-42 43 -78 43z" />
    <glyph glyph-name="Ohungarumlaut" unicode="&#x150;" horiz-adv-x="775" 
d="M438 760l99 188h153l-138 -188h-114zM240 760l92 188h140l-118 -188h-114zM42 357c0 72 14.1689 135.668 42.502 191.001s68.666 98.166 120.999 128.499s113.166 45.5 182.499 45.5c106 0 190.167 -33.333 252.5 -100s93.5 -155 93.5 -265
c0 -109.333 -31.333 -197.333 -94 -264s-146.667 -100 -252 -100s-189.333 33.333 -252 100s-94 154.667 -94 264zM216.002 357.501c0 -66.333 15.5 -119.168 46.5 -158.501s72.833 -59 125.5 -59c34.667 0 65 8.83301 91 26.5s46 43 60 76s21 71.167 21 114.5
c0 66.667 -15.5 119.667 -46.5 159s-72.833 59 -125.5 59s-94.5 -19.667 -125.5 -59s-46.5 -92.166 -46.5 -158.499z" />
    <glyph glyph-name="ohungarumlaut" unicode="&#x151;" horiz-adv-x="597" 
d="M356 584l99 187h154l-138 -187h-115zM160 584l90 187h140l-117 -187h-113zM300 -8c-84 0 -148.832 25.166 -194.499 75.499s-68.5 114.833 -68.5 193.5c0 82 23.833 149.5 71.5 202.5s111.5 79.5 191.5 79.5c83.333 0 147.666 -25.667 192.999 -77
s68 -116.666 68 -195.999c0 -81.333 -23 -148 -69 -200s-110 -78 -192 -78zM299.001 421.999c-34 0 -59.5 -14.5 -76.5 -43.5s-25.5 -66.167 -25.5 -111.5c0 -29.333 3.5 -55.5 10.5 -78.5s18.5 -41.667 34.5 -56s35.667 -21.5 59 -21.5c34 0 59.167 14.167 75.5 42.5
s24.5 65.5 24.5 111.5c0 47.333 -8 85.333 -24 114s-42 43 -78 43z" />
    <glyph glyph-name="OE" unicode="&#x152;" horiz-adv-x="1054" 
d="M383 140c52 0 92.833 19.5 122.5 58.5s44.5 92 44.5 159s-14.833 120 -44.5 159s-70.5 58.5 -122.5 58.5s-92.833 -19.5 -122.5 -58.5s-44.5 -92 -44.5 -159s14.833 -120 44.5 -159s70.5 -58.5 122.5 -58.5zM702 130h289.999v-130h-442v46
c-48 -35.333 -103.667 -53 -167 -53c-105.333 0 -188.5 33.167 -249.5 99.5s-91.5 154.5 -91.5 264.5s30.667 198.333 92 265s144.333 100 249 100c62.667 0 118.334 -17.333 167.001 -52v41h437v-130h-285v-161h256v-129h-256v-161z" />
    <glyph glyph-name="oe" unicode="&#x153;" horiz-adv-x="927" 
d="M558 316h186c0 2.66699 -0.166992 6.5 -0.5 11.5s-0.5 8.83301 -0.5 11.5c-6.66699 56 -34 84 -82 84c-24 0 -45.5 -9 -64.5 -27s-31.833 -44.667 -38.5 -80zM301 111c34.667 0 61.167 14.333 79.5 43s27.5 65.667 27.5 111c0 46 -9 83.667 -27 113s-45.333 44 -82 44
c-34 0 -59.5 -14.5 -76.5 -43.5s-25.5 -66.167 -25.5 -111.5c0 -29.333 3.5 -55.5 10.5 -78.5s18.5 -41.667 34.5 -56s35.667 -21.5 59 -21.5zM854 160v-129c-18 -12 -42.833 -21 -74.5 -27s-62.5 -9 -92.5 -9c-82.667 0 -150 26 -202 78c-47.333 -54 -109 -81 -185 -81
c-84 0 -148.833 25.167 -194.5 75.5s-68.5 114.833 -68.5 193.5c0 82 23.833 149.5 71.5 202.5s111.5 79.5 191.5 79.5c76 0 137 -25 183 -75c8 7.33301 16.333 14.333 25 21s17.667 12.667 27 18s19 10.166 29 14.499s20 7.83301 30 10.5s20.167 4.66699 30.5 6
s20.5 2 30.5 2c72 0 128.667 -20.833 170 -62.5s62 -104.167 62 -187.5c0 -15.333 -2.66699 -43 -8 -83h-315c10.667 -29.333 29 -52.166 55 -68.499s57.333 -24.5 94 -24.5c54 0 101 15.333 141 46z" />
    <glyph glyph-name="Racute" unicode="&#x154;" horiz-adv-x="646" 
d="M491 948l-116 -188h-128l91 188h153zM231 579l-0.00195312 -200h77c36.667 0 63.334 8.5 80.001 25.5s25 42.833 25 77.5c0 30 -9.16699 53.667 -27.5 71s-43.166 26 -74.499 26h-80zM434.998 0l-154.999 246.999h-49v-247h-162v711h245
c52.667 0 99.167 -9.66699 139.5 -29s71.166 -46.166 92.499 -80.499s32 -73.833 32 -118.5c0 -52 -11.667 -95.5 -35 -130.5s-55 -61.5 -95 -79.5l180 -273h-193z" />
    <glyph glyph-name="racute" unicode="&#x155;" horiz-adv-x="389" 
d="M412 771l-116 -187h-128l91 187h153zM216 535l0.00292969 -99.002c4.66699 14.667 11.167 28.334 19.5 41.001s18 23.5 29 32.5s23.333 16 37 21s28.167 7.5 43.5 7.5c17.333 0 30.666 -1.33301 39.999 -4v-146c-16.667 8 -36 12 -58 12
c-16.667 0 -31.834 -3.16699 -45.501 -9.5s-25.334 -15.166 -35.001 -26.499s-17.167 -25.333 -22.5 -42s-8 -35 -8 -55v-267h-154l1 535h153z" />
    <glyph glyph-name="uni0156" unicode="&#x156;" horiz-adv-x="646" 
d="M174 -276l75 222h159l-122 -222h-112zM231 579l-0.00195312 -200h77c36.667 0 63.334 8.5 80.001 25.5s25 42.833 25 77.5c0 30 -9.16699 53.667 -27.5 71s-43.166 26 -74.499 26h-80zM447.998 273l180.001 -273.001h-193l-155 247h-49v-247h-162v711h245
c52.667 0 99.167 -9.66699 139.5 -29s71.166 -46.166 92.499 -80.499s32 -73.833 32 -118.5c0 -52 -11.667 -95.5 -35 -130.5s-55 -61.5 -95 -79.5z" />
    <glyph glyph-name="uni0157" unicode="&#x157;" horiz-adv-x="389" 
d="M-21 -276l75 222h159l-122 -222h-112zM216 535l0.00292969 -99.002c4.66699 14.667 11.167 28.334 19.5 41.001s18 23.5 29 32.5s23.333 16 37 21s28.167 7.5 43.5 7.5c17.333 0 30.666 -1.33301 39.999 -4v-146c-16.667 8 -36 12 -58 12
c-16.667 0 -31.834 -3.16699 -45.501 -9.5s-25.334 -15.166 -35.001 -26.499s-17.167 -25.333 -22.5 -42s-8 -35 -8 -55v-267h-154l1 535h153z" />
    <glyph glyph-name="Rcaron" unicode="&#x158;" horiz-adv-x="646" 
d="M399 760h-131l-165 188h147l84 -102l82 102h147zM231 579l-0.00195312 -200h77c36.667 0 63.334 8.5 80.001 25.5s25 42.833 25 77.5c0 30 -9.16699 53.667 -27.5 71s-43.166 26 -74.499 26h-80zM434.998 0l-154.999 246.999h-49v-247h-162v711h245
c52.667 0 99.167 -9.66699 139.5 -29s71.166 -46.166 92.499 -80.499s32 -73.833 32 -118.5c0 -52 -11.667 -95.5 -35 -130.5s-55 -61.5 -95 -79.5l180 -273h-193z" />
    <glyph glyph-name="rcaron" unicode="&#x159;" horiz-adv-x="389" 
d="M289 584h-130l-165 187h146l84 -101l83 101h146zM216 535l0.00292969 -99.002c4.66699 14.667 11.167 28.334 19.5 41.001s18 23.5 29 32.5s23.333 16 37 21s28.167 7.5 43.5 7.5c17.333 0 30.666 -1.33301 39.999 -4v-146c-16.667 8 -36 12 -58 12
c-16.667 0 -31.834 -3.16699 -45.501 -9.5s-25.334 -15.166 -35.001 -26.499s-17.167 -25.333 -22.5 -42s-8 -35 -8 -55v-267h-154l1 535h153z" />
    <glyph glyph-name="Sacute" unicode="&#x15a;" horiz-adv-x="541" 
d="M213 760l91 188h153l-116 -188h-128zM479 679l-0.00390625 -152c-56 33.333 -115 50 -177 50c-27.333 0 -48.333 -5.5 -63 -16.5s-22 -25.5 -22 -43.5s8.83301 -33.667 26.5 -47s43.834 -28 78.501 -44c22 -9.33301 40.167 -17.666 54.5 -24.999
s30.833 -17.666 49.5 -30.999s33.5 -27 44.5 -41s20.5 -31.667 28.5 -53s12 -44.333 12 -69c0 -64 -23.667 -115.833 -71 -155.5s-110 -59.5 -188 -59.5c-84.667 0 -153 14.667 -205 44v164c65.333 -46.667 133.666 -70 204.999 -70c24.667 0 45.167 6.66699 61.5 20
s24.5 30.333 24.5 51c0 7.33301 -1.16699 14 -3.5 20s-6.16602 11.833 -11.499 17.5s-10.666 10.5 -15.999 14.5s-13.166 8.66699 -23.499 14s-19.166 9.66602 -26.499 12.999s-17.833 8 -31.5 14s-24.5 11 -32.5 15c-21.333 10 -40 20.333 -56 31
s-31.833 23.834 -47.5 39.501s-27.667 34.667 -36 57s-12.5 47.166 -12.5 74.499c0 61.333 22.5 110.666 67.5 147.999s107.5 56 187.5 56c71.333 0 132.333 -12 183 -36z" />
    <glyph glyph-name="sacute" unicode="&#x15b;" horiz-adv-x="459" 
d="M191 584l90 187h155l-118 -187h-127zM401 519l0.00195312 -131.999c-39.333 22 -83 33 -131 33c-18.667 0 -32.834 -3.5 -42.501 -10.5s-14.5 -16.5 -14.5 -28.5c0 -6.66699 1.83301 -12.667 5.5 -18s9.5 -10.5 17.5 -15.5s15.667 -9.33301 23 -13s17.333 -8.5 30 -14.5
s23 -11 31 -15c33.333 -17.333 59.666 -36.833 78.999 -58.5s29 -49.834 29 -84.501c0 -52.667 -19 -93.5 -57 -122.5s-88.333 -43.5 -151 -43.5s-116.667 11 -162 33v137c19.333 -14 42.833 -26 70.5 -36s55.5 -15 83.5 -15c38.667 0 58 12 58 36
c0 6.66699 -1.83301 12.834 -5.5 18.501s-9.66699 11 -18 16s-16 9.16699 -23 12.5s-17 7.66602 -30 12.999s-23.167 10 -30.5 14c-71.333 34 -107 84.667 -107 152c0 51.333 19.667 91.5 59 120.5s89 43.5 149 43.5c54 0 99.667 -7.33301 137 -22z" />
    <glyph glyph-name="Scedilla" unicode="&#x15e;" horiz-adv-x="541" 
d="M479 679l-0.00390625 -152c-56 33.333 -115 50 -177 50c-27.333 0 -48.333 -5.5 -63 -16.5s-22 -25.5 -22 -43.5s8.83301 -33.667 26.5 -47s43.834 -28 78.501 -44c22 -9.33301 40.167 -17.666 54.5 -24.999s30.833 -17.666 49.5 -30.999s33.5 -27 44.5 -41
s20.5 -31.667 28.5 -53s12 -44.333 12 -69c0 -64 -23.667 -115.833 -71 -155.5s-110 -59.5 -188 -59.5c-84.667 0 -153 14.667 -205 44v164c65.333 -46.667 133.666 -70 204.999 -70c24.667 0 45.167 6.66699 61.5 20s24.5 30.333 24.5 51c0 7.33301 -1.16699 14 -3.5 20
s-6.16602 11.833 -11.499 17.5s-10.666 10.5 -15.999 14.5s-13.166 8.66699 -23.499 14s-19.166 9.66602 -26.499 12.999s-17.833 8 -31.5 14s-24.5 11 -32.5 15c-21.333 10 -40 20.333 -56 31s-31.833 23.834 -47.5 39.501s-27.667 34.667 -36 57
s-12.5 47.166 -12.5 74.499c0 61.333 22.5 110.666 67.5 147.999s107.5 56 187.5 56c71.333 0 132.333 -12 183 -36zM356.996 -132c0 -44 -15.833 -80 -47.5 -108s-78.5 -42 -140.5 -42v96c25.333 0 44.833 5.83301 58.5 17.5s20.5 28.167 20.5 49.5
c0 19.333 -9.33301 41 -28 65h120c11.333 -18 17 -44 17 -78z" />
    <glyph glyph-name="scedilla" unicode="&#x15f;" horiz-adv-x="459" 
d="M401 519l0.00195312 -131.999c-39.333 22 -83 33 -131 33c-18.667 0 -32.834 -3.5 -42.501 -10.5s-14.5 -16.5 -14.5 -28.5c0 -6.66699 1.83301 -12.667 5.5 -18s9.5 -10.5 17.5 -15.5s15.667 -9.33301 23 -13s17.333 -8.5 30 -14.5s23 -11 31 -15
c33.333 -17.333 59.666 -36.833 78.999 -58.5s29 -49.834 29 -84.501c0 -52.667 -19 -93.5 -57 -122.5s-88.333 -43.5 -151 -43.5s-116.667 11 -162 33v137c19.333 -14 42.833 -26 70.5 -36s55.5 -15 83.5 -15c38.667 0 58 12 58 36c0 6.66699 -1.83301 12.834 -5.5 18.501
s-9.66699 11 -18 16s-16 9.16699 -23 12.5s-17 7.66602 -30 12.999s-23.167 10 -30.5 14c-71.333 34 -107 84.667 -107 152c0 51.333 19.667 91.5 59 120.5s89 43.5 149 43.5c54 0 99.667 -7.33301 137 -22zM315.002 -131.999c0 -44 -15.833 -80 -47.5 -108
s-78.5 -42 -140.5 -42v96c25.333 0 44.833 5.83301 58.5 17.5s20.5 28.167 20.5 49.5c0 19.333 -9.33301 41 -28 65h120c11.333 -18 17 -44 17 -78z" />
    <glyph glyph-name="Scaron" unicode="&#x160;" horiz-adv-x="541" 
d="M479 679l-0.00390625 -152c-56 33.333 -115 50 -177 50c-27.333 0 -48.333 -5.5 -63 -16.5s-22 -25.5 -22 -43.5s8.83301 -33.667 26.5 -47s43.834 -28 78.501 -44c22 -9.33301 40.167 -17.666 54.5 -24.999s30.833 -17.666 49.5 -30.999s33.5 -27 44.5 -41
s20.5 -31.667 28.5 -53s12 -44.333 12 -69c0 -64 -23.667 -115.833 -71 -155.5s-110 -59.5 -188 -59.5c-84.667 0 -153 14.667 -205 44v164c65.333 -46.667 133.666 -70 204.999 -70c24.667 0 45.167 6.66699 61.5 20s24.5 30.333 24.5 51c0 7.33301 -1.16699 14 -3.5 20
s-6.16602 11.833 -11.499 17.5s-10.666 10.5 -15.999 14.5s-13.166 8.66699 -23.499 14s-19.166 9.66602 -26.499 12.999s-17.833 8 -31.5 14s-24.5 11 -32.5 15c-21.333 10 -40 20.333 -56 31s-31.833 23.834 -47.5 39.501s-27.667 34.667 -36 57
s-12.5 47.166 -12.5 74.499c0 61.333 22.5 110.666 67.5 147.999s107.5 56 187.5 56c71.333 0 132.333 -12 183 -36zM345.996 760h-131l-165 188h147l83 -102l84 102h147z" />
    <glyph glyph-name="scaron" unicode="&#x161;" horiz-adv-x="459" 
d="M401 519l0.00195312 -131.999c-39.333 22 -83 33 -131 33c-18.667 0 -32.834 -3.5 -42.501 -10.5s-14.5 -16.5 -14.5 -28.5c0 -6.66699 1.83301 -12.667 5.5 -18s9.5 -10.5 17.5 -15.5s15.667 -9.33301 23 -13s17.333 -8.5 30 -14.5s23 -11 31 -15
c33.333 -17.333 59.666 -36.833 78.999 -58.5s29 -49.834 29 -84.501c0 -52.667 -19 -93.5 -57 -122.5s-88.333 -43.5 -151 -43.5s-116.667 11 -162 33v137c19.333 -14 42.833 -26 70.5 -36s55.5 -15 83.5 -15c38.667 0 58 12 58 36c0 6.66699 -1.83301 12.834 -5.5 18.501
s-9.66699 11 -18 16s-16 9.16699 -23 12.5s-17 7.66602 -30 12.999s-23.167 10 -30.5 14c-71.333 34 -107 84.667 -107 152c0 51.333 19.667 91.5 59 120.5s89 43.5 149 43.5c54 0 99.667 -7.33301 137 -22zM317.002 583.001h-131l-163 187h146l83 -102l84 102h146z" />
    <glyph glyph-name="uni0162" unicode="&#x162;" horiz-adv-x="573" 
d="M129 -276l75 222h159l-123 -222h-111zM542 711v-131h-173v-580h-163v580h-174v131h510z" />
    <glyph glyph-name="uni0163" unicode="&#x163;" horiz-adv-x="406" 
d="M90 -276l75 222h158l-121 -222h-112zM241 422v-246c0 -19.333 5.5 -33.833 16.5 -43.5s25.5 -14.5 43.5 -14.5c27.333 0 52.333 7 75 21v-128c-26.667 -10.667 -62 -16 -106 -16c-121.333 0 -182 60.667 -182 182v245h-78v113h78v126h153v-126h125v-113h-125z" />
    <glyph glyph-name="Tcaron" unicode="&#x164;" horiz-adv-x="573" 
d="M352 760h-131l-164 188h147l83 -102l83 102h147zM542 711v-131h-173v-580h-163v580h-174v131h510z" />
    <glyph glyph-name="tcaron" unicode="&#x165;" horiz-adv-x="406" 
d="M241 422v-246c0 -19.333 5.5 -33.833 16.5 -43.5s25.5 -14.5 43.5 -14.5c27.333 0 52.333 7 75 21v-128c-26.667 -10.667 -62 -16 -106 -16c-121.333 0 -182 60.667 -182 182v245h-78v113h78v126h153v-126h125v-113h-125zM370 843h159l-122 -223h-111z" />
    <glyph glyph-name="Umacron" unicode="&#x16a;" horiz-adv-x="704" 
d="M479 274v437.003h163v-436c0 -92.667 -26.167 -163.334 -78.5 -212.001s-122.833 -73 -211.5 -73c-86.667 0 -156.5 24.167 -209.5 72.5s-79.5 116.833 -79.5 205.5v443h163v-442c0 -24.667 3.33301 -45.834 10 -63.501s16 -31.334 28 -41.001s25.333 -16.667 40 -21
s30.667 -6.5 48 -6.5c84.667 0 127 45.667 127 137zM548 801.003h-375v105h375v-105z" />
    <glyph glyph-name="umacron" unicode="&#x16b;" 
d="M489 730v-105h-375v105h375zM394 535h154.001v-535h-154v85c-13.333 -28 -33.833 -49.833 -61.5 -65.5s-61.167 -23.5 -100.5 -23.5c-54.667 0 -97.334 15.333 -128.001 46s-46 75.667 -46 135v358h154v-323c0 -30.667 7.16699 -54 21.5 -70s34.833 -24 61.5 -24
c66 0 99 44.667 99 134v283z" />
    <glyph glyph-name="Uring" unicode="&#x16e;" horiz-adv-x="704" 
d="M211 892c0 40 14 74 42 102s61.833 42 101.5 42s73.334 -14 101.001 -42s41.5 -62 41.5 -102s-13.833 -73.833 -41.5 -101.5s-61.334 -41.5 -101.001 -41.5s-73.5 13.833 -101.5 41.5s-42 61.5 -42 101.5zM299 895c0 -10.667 2.16602 -20.332 6.49902 -28.999
s10.833 -15.834 19.5 -21.501s18.334 -8.5 29.001 -8.5c16.667 0 30.167 5.83301 40.5 17.5s15.5 25.5 15.5 41.5c0 10.667 -2.16699 20.5 -6.5 29.5s-10.833 16.333 -19.5 22s-18.667 8.5 -30 8.5c-16 0 -29.167 -6 -39.5 -18s-15.5 -26 -15.5 -42zM478.999 274.002
v437.003h163v-436c0 -92.667 -26.167 -163.334 -78.5 -212.001s-122.833 -73 -211.5 -73c-86.667 0 -156.5 24.167 -209.5 72.5s-79.5 116.833 -79.5 205.5v443h163v-442c0 -24.667 3.33301 -45.834 10 -63.501s16 -31.334 28 -41.001s25.333 -16.667 40 -21
s30.667 -6.5 48 -6.5c84.667 0 127 45.667 127 137z" />
    <glyph glyph-name="uring" unicode="&#x16f;" 
d="M307 779c-16.667 0 -30.167 -6 -40.5 -18s-15.5 -26 -15.5 -42s5.16699 -29.833 15.5 -41.5s23.833 -17.5 40.5 -17.5s30.167 5.83301 40.5 17.5s15.5 25.5 15.5 41.5s-5.16699 30 -15.5 42s-23.833 18 -40.5 18zM307 573c-26 0 -50 6.33496 -72 19.002
s-39.333 30 -52 52s-19 46 -19 72c0 39.333 14 73.166 42 101.499s61.667 42.5 101 42.5s73 -14.167 101 -42.5s42 -62.333 42 -102s-14 -73.334 -42 -101.001s-61.667 -41.5 -101 -41.5zM394 535.002h154.001v-535h-154v85c-13.333 -28 -33.833 -49.833 -61.5 -65.5
s-61.167 -23.5 -100.5 -23.5c-54.667 0 -97.334 15.333 -128.001 46s-46 75.667 -46 135v358h154v-323c0 -30.667 7.16699 -54 21.5 -70s34.833 -24 61.5 -24c66 0 99 44.667 99 134v283z" />
    <glyph glyph-name="Uhungarumlaut" unicode="&#x170;" horiz-adv-x="704" 
d="M479 274v437.003h163v-436c0 -92.667 -26.167 -163.334 -78.5 -212.001s-122.833 -73 -211.5 -73c-86.667 0 -156.5 24.167 -209.5 72.5s-79.5 116.833 -79.5 205.5v443h163v-442c0 -24.667 3.33301 -45.834 10 -63.501s16 -31.334 28 -41.001s25.333 -16.667 40 -21
s30.667 -6.5 48 -6.5c84.667 0 127 45.667 127 137zM398 760.003l98 188h154l-138 -188h-114zM201 760.003l90 188h141l-118 -188h-113z" />
    <glyph glyph-name="uhungarumlaut" unicode="&#x171;" 
d="M470 584h-115l99 187h154zM389 771l-117 -187h-113l90 187h140zM394 252l0.000976562 283h154v-535h-154v85c-13.333 -28 -33.833 -49.833 -61.5 -65.5s-61.167 -23.5 -100.5 -23.5c-54.667 0 -97.334 15.333 -128.001 46s-46 75.667 -46 135v358h154v-323
c0 -30.667 7.16699 -54 21.5 -70s34.833 -24 61.5 -24c66 0 99 44.667 99 134z" />
    <glyph glyph-name="Uogonek" unicode="&#x172;" horiz-adv-x="704" 
d="M479 711l162.998 0.00390625v-436c0 -68.667 -15 -125.667 -45 -171s-71.333 -77.333 -124 -96c-83.333 -52 -125 -97.667 -125 -137c0 -24 15 -36 45 -36c29.333 0 60 10.667 92 32v-106c-35.333 -18 -73.666 -27 -114.999 -27c-49.333 0 -85.666 11.5 -108.999 34.5
s-35 52.833 -35 89.5c0 47.333 22.333 92.666 67 135.999c-34.667 5.33301 -66 15 -94 29s-52.167 32.333 -72.5 55s-36 50.167 -47 82.5s-16.5 68.166 -16.5 107.499v443h163v-442c0 -24.667 3.33301 -45.834 10 -63.501s16 -31.334 28 -41.001s25.333 -16.667 40 -21
s30.667 -6.5 48 -6.5c84.667 0 127 45.667 127 137v437z" />
    <glyph glyph-name="uogonek" unicode="&#x173;" 
d="M548 535v-535c-82.667 -52 -124 -97.667 -124 -137c0 -24 15.333 -36 46 -36c28.667 0 59 10.667 91 32v-107c-34 -17.333 -72.333 -26 -115 -26c-49.333 0 -85.666 11.5 -108.999 34.5s-35 52.833 -35 89.5c0 56 30.667 108.333 92 157v78
c-13.333 -28 -33.833 -49.833 -61.5 -65.5s-61.167 -23.5 -100.5 -23.5c-54.667 0 -97.334 15.333 -128.001 46s-46 75.667 -46 135v358h154v-323c0 -30.667 7.16699 -54 21.5 -70s34.833 -24 61.5 -24c66 0 99 44.667 99 134v283h154z" />
    <glyph glyph-name="Ydieresis" unicode="&#x178;" horiz-adv-x="677" 
d="M488 766c-24.667 0 -45.334 8.33301 -62.001 25s-25 37.334 -25 62.001c0 24 8.33301 44.167 25 60.5s37.334 24.5 62.001 24.5s45.5 -8.16699 62.5 -24.5s25.5 -36.5 25.5 -60.5c0 -24.667 -8.5 -45.334 -25.5 -62.001s-37.833 -25 -62.5 -25zM206 766
c-25.333 0 -46.333 8.33301 -63 25s-25 37.334 -25 62.001c0 24 8.33301 44.167 25 60.5s37.667 24.5 63 24.5c24.667 0 45.334 -8.16699 62.001 -24.5s25 -36.5 25 -60.5c0 -24.667 -8.33301 -45.334 -25 -62.001s-37.334 -25 -62.001 -25zM664 711l-245.001 -449v-262
h-163v261l-243 450h191l43 -103c22.667 -53.333 41.334 -99 56.001 -137s24 -62.667 28 -74l6 -17c6.66699 32 37.667 108 93 228l46 103h188z" />
    <glyph glyph-name="Zacute" unicode="&#x179;" horiz-adv-x="654" 
d="M287 760l91 188h153l-117 -188h-127zM579 711v-115l-320 -465h332v-131h-528v119l319 461h-312v131h509z" />
    <glyph glyph-name="zacute" unicode="&#x17a;" horiz-adv-x="504" 
d="M211 583l91 187h153l-116 -187h-128zM450 535v-107l-234 -309h248v-119h-422v111l234 305h-224v119h398z" />
    <glyph glyph-name="Zdotaccent" unicode="&#x17b;" horiz-adv-x="654" 
d="M579 711v-115l-320 -465h332v-131h-528v119l319 461h-312v131h509zM260 854c0 15.333 3.66797 29.499 11.001 42.499s17.666 23.333 30.999 31s28.333 11.5 45 11.5c24.667 0 45.334 -8.16699 62.001 -24.5s25 -36.5 25 -60.5c0 -16 -3.83301 -30.667 -11.5 -44
s-18.167 -23.833 -31.5 -31.5s-28 -11.5 -44 -11.5c-24.667 0 -45.334 8.33301 -62.001 25s-25 37.334 -25 62.001z" />
    <glyph glyph-name="zdotaccent" unicode="&#x17c;" horiz-adv-x="504" 
d="M450 535v-107l-234 -309h248v-119h-422v111l234 305h-224v119h398zM178 677c0 24 8.33301 44.167 25 60.5s37.667 24.5 63 24.5c24.667 0 45.167 -8.16699 61.5 -24.5s24.5 -36.5 24.5 -60.5c0 -24.667 -8.16699 -45.334 -24.5 -62.001s-36.833 -25 -61.5 -25
c-25.333 0 -46.333 8.33301 -63 25s-25 37.334 -25 62.001z" />
    <glyph glyph-name="Zcaron" unicode="&#x17d;" horiz-adv-x="654" 
d="M579 711v-115l-320 -465h332v-131h-528v119l319 461h-312v131h509zM403 760h-131l-165 188h147l84 -102l83 102h147z" />
    <glyph glyph-name="zcaron" unicode="&#x17e;" horiz-adv-x="504" 
d="M450 535v-107l-234 -309h248v-119h-422v111l234 305h-224v119h398zM339 584h-131l-165 187h147l83 -101l83 101h147z" />
    <glyph glyph-name="florin" unicode="&#x192;" horiz-adv-x="550" 
d="M201 407l12 83c10.667 68.667 34 123.5 70 164.5s84.333 61.5 145 61.5c40 0 70.333 -3.33301 91 -10v-125c-19.333 7.33301 -39.666 11 -60.999 11c-18 0 -33.5 -4.5 -46.5 -13.5s-23 -21.5 -30 -37.5s-12.167 -36.333 -15.5 -61l-12 -73h101v-112h-117l-54 -339
c-10 -68.667 -32.833 -123.5 -68.5 -164.5s-84.167 -61.5 -145.5 -61.5c-42.667 0 -76.667 5.33301 -102 16v124c23.333 -10.667 48.666 -16 75.999 -16s47.5 9.16699 60.5 27.5s22.167 46.5 27.5 84.5l50 329h-91v112h110z" />
    <glyph glyph-name="uni0218" unicode="&#x218;" horiz-adv-x="541" 
d="M479 679l-0.00390625 -152c-56 33.333 -115 50 -177 50c-27.333 0 -48.333 -5.5 -63 -16.5s-22 -25.5 -22 -43.5s8.83301 -33.667 26.5 -47s43.834 -28 78.501 -44c22 -9.33301 40.167 -17.666 54.5 -24.999s30.833 -17.666 49.5 -30.999s33.5 -27 44.5 -41
s20.5 -31.667 28.5 -53s12 -44.333 12 -69c0 -64 -23.667 -115.833 -71 -155.5s-110 -59.5 -188 -59.5c-84.667 0 -153 14.667 -205 44v164c65.333 -46.667 133.666 -70 204.999 -70c24.667 0 45.167 6.66699 61.5 20s24.5 30.333 24.5 51c0 7.33301 -1.16699 14 -3.5 20
s-6.16602 11.833 -11.499 17.5s-10.666 10.5 -15.999 14.5s-13.166 8.66699 -23.499 14s-19.166 9.66602 -26.499 12.999s-17.833 8 -31.5 14s-24.5 11 -32.5 15c-21.333 10 -40 20.333 -56 31s-31.833 23.834 -47.5 39.501s-27.667 34.667 -36 57
s-12.5 47.166 -12.5 74.499c0 61.333 22.5 110.666 67.5 147.999s107.5 56 187.5 56c71.333 0 132.333 -12 183 -36zM125.996 -276l75 222h158l-122 -222h-111z" />
    <glyph glyph-name="uni0219" unicode="&#x219;" horiz-adv-x="459" 
d="M83 -276l76 222h158l-122 -222h-112zM401 519l0.00195312 -131.999c-39.333 22 -83 33 -131 33c-18.667 0 -32.834 -3.5 -42.501 -10.5s-14.5 -16.5 -14.5 -28.5c0 -6.66699 1.83301 -12.667 5.5 -18s9.5 -10.5 17.5 -15.5s15.667 -9.33301 23 -13s17.333 -8.5 30 -14.5
s23 -11 31 -15c33.333 -17.333 59.666 -36.833 78.999 -58.5s29 -49.834 29 -84.501c0 -52.667 -19 -93.5 -57 -122.5s-88.333 -43.5 -151 -43.5s-116.667 11 -162 33v137c19.333 -14 42.833 -26 70.5 -36s55.5 -15 83.5 -15c38.667 0 58 12 58 36
c0 6.66699 -1.83301 12.834 -5.5 18.501s-9.66699 11 -18 16s-16 9.16699 -23 12.5s-17 7.66602 -30 12.999s-23.167 10 -30.5 14c-71.333 34 -107 84.667 -107 152c0 51.333 19.667 91.5 59 120.5s89 43.5 149 43.5c54 0 99.667 -7.33301 137 -22z" />
    <glyph glyph-name="uni021A" unicode="&#x21a;" horiz-adv-x="573" 
d="M132 -276l75 222h159l-122 -222h-112zM542 711v-131h-173v-580h-163v580h-174v131h510z" />
    <glyph glyph-name="uni021B" unicode="&#x21b;" horiz-adv-x="406" 
d="M114 -276l74 222h160l-122 -222h-112zM241 422v-246c0 -19.333 5.5 -33.833 16.5 -43.5s25.5 -14.5 43.5 -14.5c27.333 0 52.333 7 75 21v-128c-26.667 -10.667 -62 -16 -106 -16c-121.333 0 -182 60.667 -182 182v245h-78v113h78v126h153v-126h125v-113h-125z" />
    <glyph glyph-name="circumflex" unicode="&#x2c6;" horiz-adv-x="527" 
d="M199 842h130l164 -187h-146l-83 101l-84 -101h-146z" />
    <glyph glyph-name="ring" unicode="&#x2da;" horiz-adv-x="527" 
d="M121 748.5c0 39.667 13.832 73.499 41.499 101.499s61.334 42 101.001 42s73.5 -14 101.5 -42s42 -61.667 42 -101c0 -26 -6.33301 -50 -19 -72s-30 -39.333 -52 -52s-46 -19 -72 -19c-40 0 -73.833 13.833 -101.5 41.5s-41.5 61.334 -41.5 101.001zM207.999 751.999
c0 -16 5.16895 -29.833 15.502 -41.5s23.666 -17.5 39.999 -17.5s29.666 5.83301 39.999 17.5s15.5 25.5 15.5 41.5s-5.16699 29.833 -15.5 41.5s-23.5 17.5 -39.5 17.5c-11.333 0 -21.333 -2.83301 -30 -8.5s-15.167 -13 -19.5 -22s-6.5 -18.5 -6.5 -28.5z" />
    <glyph glyph-name="tilde" unicode="&#x2dc;" horiz-adv-x="527" 
d="M394 809l79 -63.999c-14.667 -28 -34.167 -50 -58.5 -66s-52.833 -24 -85.5 -24c-23.333 0 -47.5 6.16699 -72.5 18.5s-42.833 18.5 -53.5 18.5c-12.667 0 -23.167 -1.5 -31.5 -4.5s-15.833 -7.33301 -22.5 -13s-15 -14.834 -25 -27.501l-69 67
c10.667 23.333 27.167 43.5 49.5 60.5s46.5 25.5 72.5 25.5s53 -6.16699 81 -18.5s48.667 -18.5 62 -18.5c35.333 0 60 15.333 74 46z" />
    <glyph glyph-name="uni2000" unicode="&#x2000;" horiz-adv-x="518" 
 />
    <glyph glyph-name="uni2001" unicode="&#x2001;" horiz-adv-x="1036" 
 />
    <glyph glyph-name="uni2002" unicode="&#x2002;" horiz-adv-x="518" 
 />
    <glyph glyph-name="uni2003" unicode="&#x2003;" horiz-adv-x="1036" 
 />
    <glyph glyph-name="uni2004" unicode="&#x2004;" horiz-adv-x="345" 
 />
    <glyph glyph-name="uni2005" unicode="&#x2005;" horiz-adv-x="259" 
 />
    <glyph glyph-name="uni2006" unicode="&#x2006;" horiz-adv-x="172" 
 />
    <glyph glyph-name="uni2007" unicode="&#x2007;" horiz-adv-x="172" 
 />
    <glyph glyph-name="uni2008" unicode="&#x2008;" horiz-adv-x="129" 
 />
    <glyph glyph-name="uni2009" unicode="&#x2009;" horiz-adv-x="207" 
 />
    <glyph glyph-name="uni200A" unicode="&#x200a;" horiz-adv-x="57" 
 />
    <glyph glyph-name="uni200B" unicode="&#x200b;" horiz-adv-x="0" 
 />
    <glyph glyph-name="uni200C" unicode="&#x200c;" horiz-adv-x="0" 
d="M26 -243h-51v1098h51v-1098z" />
    <glyph glyph-name="uni200D" unicode="&#x200d;" horiz-adv-x="0" 
d="M136 625l-35 -35l-75 80v-913h-51v913l-72 -78l-35 35l98 99l-100 100l35 35l100 -101l101 101l34 -34l-101 -101z" />
    <glyph glyph-name="uni2010" unicode="&#x2010;" horiz-adv-x="375" 
d="M47 213v127h282v-127h-282z" />
    <glyph glyph-name="uni2011" unicode="&#x2011;" horiz-adv-x="375" 
d="M47 213v127h282v-127h-282z" />
    <glyph glyph-name="figuredash" unicode="&#x2012;" horiz-adv-x="375" 
d="M47 213v127h282v-127h-282z" />
    <glyph glyph-name="endash" unicode="&#x2013;" horiz-adv-x="585" 
d="M47 227v113h491v-113h-491z" />
    <glyph glyph-name="emdash" unicode="&#x2014;" horiz-adv-x="881" 
d="M47 230v113h787v-113h-787z" />
    <glyph glyph-name="quoteleft" unicode="&#x2018;" horiz-adv-x="281" 
d="M305 732l-106 -276h-170l143 276h133z" />
    <glyph glyph-name="quoteright" unicode="&#x2019;" horiz-adv-x="281" 
d="M30 456l106 276h170l-143 -276h-133z" />
    <glyph glyph-name="quotesinglbase" unicode="&#x201a;" horiz-adv-x="281" 
d="M-7 -134l106 275h170l-143 -275h-133z" />
    <glyph glyph-name="quotedblleft" unicode="&#x201c;" horiz-adv-x="475" 
d="M305 732l-110 -276h-166l148 276h128zM500 732l-101 -276h-154l127 276h128z" />
    <glyph glyph-name="quotedblright" unicode="&#x201d;" horiz-adv-x="475" 
d="M225 456l110 276h166l-149 -276h-127zM30 456l101 276h153l-126 -276h-128z" />
    <glyph glyph-name="quotedblbase" unicode="&#x201e;" horiz-adv-x="475" 
d="M193 -134l110 275h167l-150 -275h-127zM-2 -134l101 275h154l-127 -275h-128z" />
    <glyph glyph-name="dagger" unicode="&#x2020;" horiz-adv-x="589" 
d="M558 552v-125h-195v-427h-137v427h-194v125h194v159h137v-159h195z" />
    <glyph glyph-name="daggerdbl" unicode="&#x2021;" horiz-adv-x="621" 
d="M574 427h-195v-144h195v-123h-195v-160h-138v160h-194v123h194v144h-194v125h194v159h138v-159h195v-125z" />
    <glyph glyph-name="bullet" unicode="&#x2022;" horiz-adv-x="448" 
d="M84 376c0 40 13.334 73.333 40.001 100s60 40 100 40c39.333 0 72.5 -13.5 99.5 -40.5s40.5 -60.333 40.5 -100s-13.5 -73 -40.5 -100s-59.833 -40.5 -98.5 -40.5c-40.667 0 -74.334 13.5 -101.001 40.5s-40 60.5 -40 100.5z" />
    <glyph glyph-name="ellipsis" unicode="&#x2026;" horiz-adv-x="988" 
d="M63 85c0 17.333 4.33594 33.1689 13.0029 47.502s20.167 25.666 34.5 33.999s30.166 12.5 47.499 12.5c25.333 0 47.166 -9.16699 65.499 -27.5s27.5 -40.333 27.5 -66s-9.16699 -47.667 -27.5 -66s-40.333 -27.5 -66 -27.5s-47.834 9.16699 -66.501 27.5
s-28 40.166 -28 65.499zM401.003 85.5029c0 25.667 9.16699 47.667 27.5 66s40.333 27.5 66 27.5s47.667 -9.16699 66 -27.5s27.5 -40.333 27.5 -66s-9.16699 -47.667 -27.5 -66s-40.333 -27.5 -66 -27.5s-47.667 9.16699 -66 27.5s-27.5 40.333 -27.5 66zM739.003 85.5029
c0 25.667 9.16699 47.667 27.5 66s40.333 27.5 66 27.5s47.667 -9.16699 66 -27.5s27.5 -40.333 27.5 -66s-9.16699 -47.667 -27.5 -66s-40.333 -27.5 -66 -27.5s-47.667 9.16699 -66 27.5s-27.5 40.333 -27.5 66z" />
    <glyph glyph-name="uni202F" unicode="&#x202f;" horiz-adv-x="207" 
 />
    <glyph glyph-name="perthousand" unicode="&#x2030;" horiz-adv-x="1488" 
d="M239 -1l401 747h139l-401 -747h-139zM578 191.5c0 55.667 19.5 102.999 58.5 141.999s86.5 58.5 142.5 58.5c36 0 69.333 -8.83301 100 -26.5s54.834 -42 72.501 -73s26.5 -64.5 26.5 -100.5c0 -56 -19.333 -103.333 -58 -142s-85.834 -58 -141.501 -58
s-103 19.333 -142 58s-58.5 85.834 -58.5 141.501zM47 560.999c0 56 19.666 103.334 58.999 142.001s86.833 58 142.5 58s102.834 -19.333 141.501 -58s58 -85.834 58 -141.501s-19.333 -103.167 -58 -142.5s-86 -59 -142 -59c-36 0 -69.5 9 -100.5 27
s-55.5 42.5 -73.5 73.5s-27 64.5 -27 100.5zM170.999 561.5c0 -21 7.66699 -39.167 23 -54.5s33.5 -23 54.5 -23s38.833 7.66699 53.5 23s22 33.5 22 54.5s-7.33301 39.167 -22 54.5s-32.5 23 -53.5 23s-39.167 -7.66699 -54.5 -23s-23 -33.5 -23 -54.5zM700.999 191.5
c0 -21 7.66699 -39 23 -54s33.5 -22.5 54.5 -22.5s39 7.5 54 22.5s22.5 33 22.5 54s-7.5 39.167 -22.5 54.5s-33 23 -54 23s-39.167 -7.66699 -54.5 -23s-23 -33.5 -23 -54.5zM1042 192c0 36 8.83105 69.501 26.498 100.501s41.834 55.333 72.501 73
s64.334 26.5 101.001 26.5c56 0 103.5 -19.5 142.5 -58.5s58.5 -86.333 58.5 -142s-19.5 -102.834 -58.5 -141.501s-86.333 -58 -142 -58s-103 19.333 -142 58s-58.5 86 -58.5 142zM1166 192.001c0 -21.333 7.50098 -39.5 22.501 -54.5s33 -22.5 54 -22.5s39 7.5 54 22.5
s22.5 33 22.5 54s-7.5 39.167 -22.5 54.5s-33.167 23 -54.5 23c-14 0 -26.833 -3.5 -38.5 -10.5s-20.834 -16.5 -27.501 -28.5s-10 -24.667 -10 -38z" />
    <glyph glyph-name="guilsinglleft" unicode="&#x2039;" horiz-adv-x="390" 
d="M348 438l-154 -171l154 -171h-161l-159 171l159 171h161z" />
    <glyph glyph-name="guilsinglright" unicode="&#x203a;" horiz-adv-x="390" 
d="M204 438l160 -171l-160 -171h-161l154 171l-154 171h161z" />
    <glyph glyph-name="fraction" unicode="&#x2044;" horiz-adv-x="278" 
d="M-72 0h-114l452 750h114z" />
    <glyph glyph-name="uni205F" unicode="&#x205f;" horiz-adv-x="259" 
 />
    <glyph glyph-name="uni20A8" unicode="&#x20a8;" horiz-adv-x="1028" 
d="M231 579l-0.00195312 -200h77c36.667 0 63.334 8.5 80.001 25.5s25 42.833 25 77.5c0 30 -9.16699 53.667 -27.5 71s-43.166 26 -74.499 26h-80zM68.998 711l245.001 -0.000976562c52.667 0 99.167 -9.66699 139.5 -29s71.166 -46.166 92.499 -80.499
s32 -73.833 32 -118.5c0 -52 -11.667 -95.5 -35 -130.5s-55 -61.5 -95 -79.5l180 -273h-193l-155 247h-49v-247h-162v711zM980.999 518.999l0.00292969 -131.999c-39.333 22 -83 33 -131 33c-18.667 0 -32.834 -3.5 -42.501 -10.5s-14.5 -16.5 -14.5 -28.5
c0 -6.66699 1.83301 -12.667 5.5 -18s9.5 -10.5 17.5 -15.5s15.667 -9.33301 23 -13s17.333 -8.5 30 -14.5s23 -11 31 -15c33.333 -17.333 59.666 -36.833 78.999 -58.5s29 -49.834 29 -84.501c0 -52.667 -19 -93.5 -57 -122.5s-88.333 -43.5 -151 -43.5
s-116.334 11 -161.001 33v137c47.333 -34 98.333 -51 153 -51c38.667 0 58 12 58 36c0 6.66699 -1.83301 12.834 -5.5 18.501s-9.66699 11 -18 16s-16 9.16699 -23 12.5s-17.167 7.66602 -30.5 12.999s-23.333 10 -30 14c-71.333 34 -107 84.667 -107 152
c0 51.333 19.667 91.5 59 120.5s89 43.5 149 43.5c54 0 99.667 -7.33301 137 -22z" />
    <glyph glyph-name="Euro" unicode="&#x20ac;" horiz-adv-x="655" 
d="M614 659v-154.998c-42 34 -90 51 -144 51c-69.333 0 -121 -28.333 -155 -85h188v-95h-217c-2 -24.667 -3 -37.334 -3 -38.001c0 -14 0.333008 -24 1 -30h219v-95h-189c32.667 -52.667 83 -79 151 -79c57.333 0 107 17 149 51v-155
c-15.333 -8 -28.166 -14.167 -38.499 -18.5s-26.833 -8.5 -49.5 -12.5s-48.334 -6 -77.001 -6c-75.333 0 -140.166 19.833 -194.499 59.5s-92.5 93.167 -114.5 160.5h-98v95h81c-0.666992 6.66699 -1 17 -1 31c0 17.333 0.333008 29.666 1 36.999h-81v95h97
c22 72.667 60.833 129 116.5 169s118.5 60 188.5 60c27.333 0 51.5 -1.5 72.5 -4.5s38.667 -7.33301 53 -13s29.166 -13.167 44.499 -22.5z" />
    <glyph glyph-name="uni20B9" unicode="&#x20b9;" horiz-adv-x="589" 
d="M546 596l-163 -0.000976562c18 -20 31 -41.667 39 -65h124v-115h-113c-7.33301 -49.333 -27.166 -89.666 -59.499 -120.999s-75.833 -51.333 -130.5 -60l201 -235h-194l-187 231v121h93c65.333 0 104.666 21.333 117.999 64h-211v115h205
c-20.667 43.333 -59.667 65 -117 65h-88v115h483v-115z" />
    <glyph glyph-name="uni20BA" unicode="&#x20ba;" horiz-adv-x="620" 
d="M464 383l149.001 0.000976562c0 -48 -8.16699 -94.5 -24.5 -139.5s-39.833 -85.833 -70.5 -122.5s-70.334 -66 -119.001 -88s-103 -33 -163 -33h-104v219l-75 -38v118l75 38v94l-75 -39v118l75 37v144h154v-67l94 48v-117l-94 -47v-95l94 47v-116l-94 -47v-163
c54.667 16 98 47.167 130 93.5s48 98.166 48 155.499z" />
    <glyph glyph-name="uni20BD" unicode="&#x20bd;" horiz-adv-x="574" 
d="M231 566v-208h41c86 0 129 37 129 111c0 64.667 -40 97 -120 97h-50zM301 251l-70 -0.000976562v-63h208v-107h-208v-81h-162v81h-81v107h81v63h-81v107h81v333h232c84 0 147.333 -20.333 190 -61s64 -93 64 -157c0 -71.333 -23 -126.166 -69 -164.499
s-107.667 -57.5 -185 -57.5z" />
    <glyph glyph-name="trademark" unicode="&#x2122;" horiz-adv-x="794" 
d="M321 349l30.999 362.003h104l38 -98c8.66699 -20.667 16 -39.834 22 -57.501s10.667 -31.834 14 -42.501s6 -19.667 8 -27s3.33301 -12.333 4 -15l1 -4c6.66699 22.667 24 71.334 52 146.001l37 98h105l38 -362h-97l-11 119c-1.33301 22 -2 44.167 -2 66.5
s0.333008 39.166 1 50.499l1 17c-6.66699 -39.333 -20 -84.333 -40 -135l-42 -114h-82l-41 114c-7.33301 20.667 -14.166 42.167 -20.499 64.5s-10.833 39.5 -13.5 51.5l-4 19c0.666992 -5.33301 1.5 -11.833 2.5 -19.5s2 -23.834 3 -48.501s0.166992 -47 -2.5 -67l-9 -118
h-97zM9.99902 624.003v87h276v-87h-87v-275h-100v275h-89z" />
    <glyph glyph-name="uni25FC" unicode="&#x25fc;" horiz-adv-x="532" 
d="M0 533h533v-533h-533v533z" />
    <glyph glyph-name="glyph1" horiz-adv-x="0" 
 />
    <glyph glyph-name="glyph2" horiz-adv-x="341" 
 />
  </font>
</defs>
</svg>
